logo
Международный русскоязычный
торрент-трекер
Menu

Магазин-KorsaRDoublon
Поделиться с друзьями: 
Голосуй за Корсар и получай дублоны
Рейтинг торрент трекеров - UpTracker.ru

Больше чем мёд / More Than Honey (2012, документальный, BDRip 720p)

Сообщение Korsar » 03 янв 2017, 21:57



Информация о фильме
Название: Больше чем мед
Оригинальное название: More Than Honey
Год выхода: 2012
Жанр: документальный
Режиссер: Маркус Имхоф
В ролях: Fred Jaggi, Randolf Menzel, Джон Миллер, Liane Singer, Хейдран Сингер, Zhao Su Zhang, Фред Терри, Boris Baer, Joseph MacIlvaine, André Maritz

О фильме: Документальный фильм о жизни пчел, об их загадочной массовой гибели в последние годы по всему миру, об опасностях, которые несет им сегодняшняя цивилизация, и о том неоценимом вкладе, который они вносят в обеспечение человечества продовольствием, участвуя в опылении сельхозкультур. Автор фильма берет интервью у ученых и описывает уникальное устройство пчелиной жизни, заглянув в самые укромные уголки улья и в неповторимый образ жизни пчел.



Выпущено: Швейцария, Германия, Австрия [Zero One Film / Allegro Film / Thelma Film & Ormenis Film]
Продолжительность: 01:31:28
Перевод: Профессиональный двухголосый закадровый

Файл
Кодек: x264
Качество: BDRip (источник: Blu-ray Disc)
Видео: 1280x720 (16:9), 25 fps, 5940 kbps
Аудио #1: AC-3, 6 ch, 448 kbps (Двухголосый закадровый, Ф.Цветков и У.Громова)
Аудио #2: AC-3, 6 ch, 448 kbps (Оригинал)
Скачать: сэмпл

Скриншоты

Общее
Уникальный идентификатор : 204985036290033001676506251610845940250 (0x9A36AE948D621B17AAB7E01FDB210A1A)
Полное имя : More.Than.Honey.2012.BDRip.720p.Rus.Ger.mkv
Формат : Matroska
Версия формата : Version 2
Размер файла : 4,37 Гбайт
Продолжительность : 1 ч. 31 м.
Общий поток : 6835 Кбит/сек
Название фильма : Больше чем мед / More Than Honey (2012)
Дата кодирования : UTC 2013-06-10 17:02:03
Программа кодирования : mkvmerge v5.8.0 ('No Sleep / Pillow') built on Sep 2 2012 15:37:04
Библиотека кодирования : libebml v1.2.3 + libmatroska v1.3.0

Видео
Идентификатор : 1
Формат : AVC
Формат/Информация : Advanced Video Codec
Профиль формата : High@L4.1
Параметр CABAC формата : Да
Параметр ReFrames формата : 9 кадров
Идентификатор кодека : V_MPEG4/ISO/AVC
Продолжительность : 1 ч. 31 м.
Битрейт : 5944 Кбит/сек
Ширина : 1280 пикселей
Высота : 720 пикселей
Соотношение сторон : 16:9
Частота кадров : 25,000 кадров/сек
Цветовое пространство : YUV
Субдискретизация насыщенности : 4:2:0
Битовая глубина : 8 бит
Тип развёртки : Прогрессивная
Бит/(Пиксели*Кадры) : 0.258
Размер потока : 3,71 Гбайт (85%)
Заголовок : Release by AlexKa
Библиотека кодирования : x264 core 133 r2334 a3ac64b
Настройки программы : cabac=1 / ref=9 / deblock=1:-3:-3 / analyse=0x3:0x133 / me=umh / subme=10 / psy=1 / psy_rd=1.00:0.00 / mixed_ref=1 / me_range=32 / chroma_me=1 / trellis=2 / 8x8dct=1 / cqm=0 / deadzone=21,11 / fast_pskip=0 / chroma_qp_offset=-2 / threads=12 / lookahead_threads=1 / sliced_threads=0 / nr=0 / decimate=0 / interlaced=0 / bluray_compat=0 / constrained_intra=0 / bframes=6 / b_pyramid=2 / b_adapt=2 / b_bias=0 / direct=3 / weightb=1 / open_gop=0 / weightp=2 / keyint=250 / keyint_min=25 / scenecut=40 / intra_refresh=0 / rc_lookahead=60 / rc=2pass / mbtree=1 / bitrate=5944 / ratetol=1.0 / qcomp=0.60 / qpmin=0 / qpmax=69 / qpstep=4 / cplxblur=20.0 / qblur=0.5 / ip_ratio=1.40 / aq=1:1.00
Язык : German

Аудио #1
Идентификатор : 2
Формат : AC-3
Формат/Информация : Audio Coding 3
Расширение режима : CM (complete main)
Идентификатор кодека : A_AC3
Продолжительность : 1 ч. 31 м.
Вид битрейта : Постоянный
Битрейт : 448 Кбит/сек
Каналы : 6 каналов
Расположение каналов : Front: L C R, Side: L R, LFE
Частота : 48,0 КГц
Битовая глубина : 16 бит
Метод сжатия : С потерями
Размер потока : 293 Мбайт (7%)
Заголовок : Двухголосый закадровый, Ф.Цветков и У.Громова
Язык : Russian

Аудио #2
Идентификатор : 3
Формат : AC-3
Формат/Информация : Audio Coding 3
Расширение режима : CM (complete main)
Идентификатор кодека : A_AC3
Продолжительность : 1 ч. 31 м.
Вид битрейта : Постоянный
Битрейт : 448 Кбит/сек
Каналы : 6 каналов
Расположение каналов : Front: L C R, Side: L R, LFE
Частота : 48,0 КГц
Битовая глубина : 16 бит
Метод сжатия : С потерями
Размер потока : 293 Мбайт (7%)
Заголовок : Original
Язык : German

Меню
00:00:00.000 : :Chapter 01
00:07:11.800 : :Chapter 02
00:20:06.800 : :Chapter 03
00:34:13.240 : :Chapter 04
00:38:18.000 : :Chapter 05
00:43:43.440 : :Chapter 06
00:51:21.600 : :Chapter 07
00:56:03.840 : :Chapter 08
01:01:01.680 : :Chapter 09
01:06:16.800 : :Chapter 10
01:15:11.600 : :Chapter 11
01:19:51.120 : :Chapter 12

Автор рипа: AlexKa

Боцман
Аватара пользователя
Korsar
Помощник Администратора-Корсар
 
 

Награды: 16
За отличные раздачи и качество (8) За участие в конкурсах (2) Верный Сид (5)
  • Торрент
Для скачивания торрента необходимо зарегистрироваться или войти на трекер.

Вернуться в Научно-популярные фильмы (HD Video)



Uptime по данным Ping-Admin.Ru - сервиса мониторинга доступности сайтов