logo
Международный русскоязычный
торрент-трекер
Menu
Магазин-KorsaRDoublon
Поделиться с друзьями: 
Голосуй и получи дублоны
Рейтинг торрент трекеров - UpTracker.ru

IMAX. Космическая станция / IMAX. Space Station (2002, документальный, BDRip 1080p)

Сообщение _denis_100 » 13 дек 2016, 09:32


Русское название: IMAX. Космическая станция
Оригинальное название: IMAX. Space Station
Год выпуска: 2002
Жанр: документальный
Выпущено: Канада, США
Режиссер: Тони Майерс
В ролях: Джеймс Арнольд , Майкл Дж. Блумфилд , Роберт Д. Кабана , Лерой Чао , Кеннет Д. Кокрелл , Роберт Л. Карбим мл. , Брайан Даффи , Марк Гарно , Майкл Л. Гернхард , Юрий Павлович Гидзенко , Умберто Гуидони
Перевод: Авторский одноголосый


Сюжет фильма:
Зрители путешествуют на околоземной орбите по Международной космической стан­ции - масштабному космическому проекту 21-го века. 16 стран, включая Россию, приняли участие в создании этой космической лаборатории.



Качество: BDRip 1080p
Формат: AVC (библиотека кодирования x.264)
Контейнер (Расширение): MKV
Видео: 1920x1080, 11977 Кбит/сек, 23,976 кадр/сек, 0,241 Бит/[Пиксели*Кадры]
Аудио №1: русский / AC3 / 5.1 / 48 kHz / 640 kbps / |Авторский одноголосый, А. Дасевич|
Аудио №2: английский / AC3 / 5.1 / 48 kHz / 640 kbps /
Субтитры: русские
Навигация по главам(Чаптеры): есть
Продолжительность: 00:47:11

Автор рипа: Группа:


Format : Matroska
Format version : Version 2
File size : 4.37 GiB
Duration : 47 min
Overall bit rate : 13.3 Mb/s
Movie name : IMAX.Space Station.2002.BDRip.1080.[denis100]
Encoded date : UTC 2016-10-14 06:58:47
Writing application : mkvmerge v5.8.0 ('No Sleep / Pillow') built on Sep 2 2012 15:37:04
Writing library : libebml v1.2.3 + libmatroska v1.3.0

Video
ID : 1
Format : AVC
Format/Info : Advanced Video Codec
Format profile : High@L4.1
Format settings, CABAC : Yes
Format settings, ReFrames : 4 frames
Codec ID : V_MPEG4/ISO/AVC
Duration : 47 min
Bit rate : 12.0 Mb/s
Width : 1 920 pixels
Height : 1 080 pixels
Display aspect ratio : 16:9
Frame rate mode : Constant
Frame rate : 23.976 (24000/1001) FPS
Color space : YUV
Chroma subsampling : 4:2:0
Bit depth : 8 bits
Scan type : Progressive
Bits/(Pixel*Frame) : 0.241
Stream size : 3.86 GiB (88%)
Title : IMAX.Space Station.2002.BDRip.1080.[denis100]
Writing library : x264 core 148 r2721 72d53ab
Encoding settings : cabac=1 / ref=4 / deblock=1:-3:-3 / analyse=0x3:0x133 / me=umh / subme=11 / psy=1 / psy_rd=1.00:0.00 / mixed_ref=1 / me_range=32 / chroma_me=1 / trellis=2 / 8x8dct=1 / cqm=0 / deadzone=21,11 / fast_pskip=0 / chroma_qp_offset=-2 / threads=6 / lookahead_threads=1 / sliced_threads=0 / nr=0 / decimate=1 / interlaced=0 / bluray_compat=0 / constrained_intra=0 / bframes=9 / b_pyramid=2 / b_adapt=2 / b_bias=0 / direct=3 / weightb=1 / open_gop=0 / weightp=2 / keyint=240 / keyint_min=23 / scenecut=40 / intra_refresh=0 / rc=2pass / mbtree=0 / bitrate=11977 / ratetol=1.0 / qcomp=0.60 / qpmin=0 / qpmax=69 / qpstep=4 / cplxblur=20.0 / qblur=0.5 / ip_ratio=1.40 / pb_ratio=1.30 / aq=1:0.95
Language : English
Default : Yes
Forced : No

Audio #1
ID : 2
Format : AC-3
Format/Info : Audio Coding 3
Mode extension : CM (complete main)
Format settings, Endianness : Big
Codec ID : A_AC3
Duration : 47 min
Bit rate mode : Constant
Bit rate : 640 kb/s
Channel(s) : 6 channels
Channel positions : Front: L C R, Side: L R, LFE
Sampling rate : 48.0 kHz
Frame rate : 31.250 FPS (1536 spf)
Compression mode : Lossy
Stream size : 216 MiB (5%)
Title : AVO, А. Дасевич
Language : Russian
Default : Yes
Forced : No

Audio #2
ID : 3
Format : AC-3
Format/Info : Audio Coding 3
Mode extension : CM (complete main)
Format settings, Endianness : Big
Codec ID : A_AC3
Duration : 47 min
Bit rate mode : Constant
Bit rate : 640 kb/s
Channel(s) : 6 channels
Channel positions : Front: L C R, Side: L R, LFE
Sampling rate : 48.0 kHz
Frame rate : 31.250 FPS (1536 spf)
Compression mode : Lossy
Stream size : 216 MiB (5%)
Language : English
Default : No
Forced : No

Text
ID : 4
Format : UTF-8
Codec ID : S_TEXT/UTF8
Codec ID/Info : UTF-8 Plain Text
Language : Russian
Default : No
Forced : No

Menu
00:00:00.000 : en:Chapter 01
00:10:28.419 : en:Chapter 02
00:22:17.294 : en:Chapter 03
00:29:13.376 : en:Chapter 04
00:40:14.703 : en:Chapter 05
00:45:24.012 : en:Chapter 06
00:47:10.160 : en:Chapter 07


x264 [info]: frame I:348 Avg QP:11.27 size:327913
x264 [info]: frame P:17145 Avg QP:14.38 size:120422
x264 [info]: frame B:50404 Avg QP:16.51 size: 40859
Аватара пользователя
_denis_100
Опытный Релизёр-Корсар
 
Месяцев на трекере: 7Месяцев на трекере: 7Месяцев на трекере: 7Месяцев на трекере: 7Месяцев на трекере: 7Месяцев на трекере: 7Месяцев на трекере: 7
 

Награды: 9
Лучший по количеству кубков (1) За отличные раздачи (6) За подробное оформление раздач (1) Верный Сид (1)
  • Торрент
Для скачивания торрента необходимо зарегистрироваться или войти на трекер.

Сообщение mister.hats » 13 дек 2016, 12:59

_denis_100 Спасибо,отличная тема.. :hi:

Тот кто не с нами, тот против нас
Аватара пользователя
mister.hats
Корсар-Вип
 
Месяцев на трекере: 11Месяцев на трекере: 11Месяцев на трекере: 11Месяцев на трекере: 11Месяцев на трекере: 11Месяцев на трекере: 11Месяцев на трекере: 11Месяцев на трекере: 11Месяцев на трекере: 11Месяцев на трекере: 11Месяцев на трекере: 11
 

Награды: 3
За помощь проекту (1) За отличные комментарии (1) Верный Сид (1)


Вернуться в Космос



мониторинг сайтов