logo
Международный русскоязычный
торрент-трекер

Зеленая планета / The Green Planet / Das grüne Wunder (2012, документальный, BDRip-AVC)

Сообщение _denis_100 » 13 дек 2016, 06:18

#777
Русское название: Зеленая планета
Оригинальное название: The Green Planet / Das grüne Wunder
Год выпуска: 2012
Жанр: документальный
Выпущено: Германия
Режиссер: Жан Хафт
Перевод: Профессиональный одноголосый

Сюжет фильма:
Леса занимают 30 процентов поверхности Земли, но мы до сих пор мало что о них знаем. «Зеленая планета» позволит нам приблизиться к этому загадочному и волшебному миру. Режиссер Ян Хафт и его команда покажут истории лесных жителей, от грациозных оленей до хитрых лисиц и диких кабанов.



Качество: BDRip-AVC
Формат: AVC (библиотека кодирования x.264)
Контейнер (Расширение): MKV
Видео: 1024x576, 3275 Кбит/сек, 25 кадр/сек, 0,222 Бит/[Пиксели*Кадры]
Аудио: русский / AC3 / 2.0 / 48 kHz / 192 kbps / |Профессиональный одноголосый, канал "Культура"|
Продолжительность: 01:30:04

Автор рипа: Группа:


Format : Matroska
Format version : Version 2
File size : 2.18 GiB
Duration : 1 h 30 min
Overall bit rate : 3 462 kb/s
Movie name : The Green Planet.2012.BDRip-AVC.[denis100]
Encoded date : UTC 2016-11-13 09:33:04
Writing application : mkvmerge v5.8.0 ('No Sleep / Pillow') built on Sep 2 2012 15:37:04
Writing library : libebml v1.2.3 + libmatroska v1.3.0

Video
ID : 1
Format : AVC
Format/Info : Advanced Video Codec
Format profile : High@L4.1
Format settings, CABAC : Yes
Format settings, ReFrames : 11 frames
Codec ID : V_MPEG4/ISO/AVC
Duration : 1 h 30 min
Bit rate : 3 275 kb/s
Width : 1 024 pixels
Height : 576 pixels
Display aspect ratio : 16:9
Frame rate mode : Constant
Frame rate : 25.000 FPS
Color space : YUV
Chroma subsampling : 4:2:0
Bit depth : 8 bits
Scan type : Progressive
Bits/(Pixel*Frame) : 0.222
Stream size : 2.01 GiB (92%)
Title : The Green Planet.2012.BDRip-AVC.[denis100]
Writing library : x264 core 148 r2721 72d53ab
Encoding settings : cabac=1 / ref=11 / deblock=1:-3:-3 / analyse=0x3:0x133 / me=umh / subme=11 / psy=1 / psy_rd=1.00:0.10 / mixed_ref=1 / me_range=32 / chroma_me=1 / trellis=2 / 8x8dct=1 / cqm=0 / deadzone=21,11 / fast_pskip=0 / chroma_qp_offset=-3 / threads=6 / lookahead_threads=1 / sliced_threads=0 / nr=0 / decimate=1 / interlaced=0 / bluray_compat=0 / constrained_intra=0 / bframes=10 / b_pyramid=2 / b_adapt=2 / b_bias=0 / direct=3 / weightb=1 / open_gop=0 / weightp=2 / keyint=250 / keyint_min=25 / scenecut=40 / intra_refresh=0 / rc=2pass / mbtree=0 / bitrate=3275 / ratetol=1.0 / qcomp=0.60 / qpmin=0 / qpmax=69 / qpstep=4 / cplxblur=20.0 / qblur=0.5 / ip_ratio=1.40 / pb_ratio=1.30 / aq=1:0.85
Language : English
Default : Yes
Forced : No

Audio
ID : 2
Format : AC-3
Format/Info : Audio Coding 3
Mode extension : CM (complete main)
Format settings, Endianness : Big
Codec ID : A_AC3
Duration : 1 h 30 min
Bit rate mode : Constant
Bit rate : 192 kb/s
Channel(s) : 2 channels
Channel positions : Front: L R
Sampling rate : 48.0 kHz
Frame rate : 31.250 FPS (1536 spf)
Compression mode : Lossy
Stream size : 124 MiB (6%)
Title : Профессиональный одноголосый, канал "Культура"
Language : Russian
Default : Yes
Forced : No


x264 [info]: frame I:828 Avg QP:16.00 size:115691
x264 [info]: frame P:30550 Avg QP:18.57 size: 34299
x264 [info]: frame B:103739 Avg QP:20.51 size: 10260
Аватара пользователя
_denis_100
Опытный Релизёр-Корсар
 
Месяцев на трекере: 1
 
Раздал: 705.53 ГБ
Зарегистрирован: 12 дек 2016, 08:55

  • Торрент
Автор: _denis_100 Хэш: ---
Добавлен: 13 дек 2016, 06:17 Приватный: Нет (DHT включён)
Статус: Проверен
Размер: 2.18 ГБ (2 338 849 647 байт)
Изменил:
---
Скачали: 241 (Раздающих: 12%)
Причина:
---
Здоровье: 100%
Сидеров: 28 Личеров: 0
Скорость раздачи: 0 байт/сек Скорость скачивания: 0 байт/сек
Последний сидер: 1 день 18 часов 49 минут 3 секунды назад Последний личер: Нет
Для скачивания торрента необходимо зарегистрироваться или войти на трекер.

Вернуться в Научно-популярные фильмы

cron