logo
Международный русскоязычный
торрент-трекер

SHOP-KorsaRDoublon

Поделиться с друзьями: 

История игрушек: Гавайские каникулы / Toy Story Toons: Hawaiian Vacation (2011, анимационный, короткометражка, комедия, BDRip 1080p)

Сообщение Korsar » 03 дек 2016, 22:53

Гавайские каникулы / Hawaiian Vacation
Год выпуска: 2011
Страна: США
Жанр: мультфильм, короткометражка, комедия
Продолжительность: 00:05:53
Перевод: Профессиональный (полное дублирование)
Cубтитры: русские, украинские, английские
Навигация по главам: есть

Режиссер: Гари Ридстром / Gary Rydstrom
Сценарий: Гари Ридстром / Gary Rydstrom, Джейсон Кац / Jason Katz, Эрик Бенсон / Erik Benson, Кристиан Роман / Christian Roman
Композитор: Марк Мазерсбо / Mark Mothersbaugh

В ролях: Том Хэнкс (Woody, озвучка), Тим Аллен (Buzz Lightyear, озвучка), Джоан Кьюсак (Jessie, озвучка), Кристен Шааль (Trixie, озвучка), Уоллес Шоун (Rex, озвучка), Эксел Геддес (Rexing Bull, озвучка), Джефф Гарлин (Buttercup, озвучка), Эстелль Харрис (Mrs. Potato Head, озвучка), Дон Риклз (Mr. Potato Head, озвучка), Тимоти Далтон (Mr. Pricklepants, озвучка), Джефф Пиджон (Aliens, озвучка), Зои Левин (Peas-in-a-Pod, озвучка)
Дублёры: Александр Баргман (Woody), Станислав Концевич (Buzz Lightyear), Юлия Рудина (Jessie), Мария Цветкова-Овсянникова (Trixie), Валерий Захарьев (Rex), Марк Макаренков (Buttercup), Лидия Мельникова (Mrs. Potato Head), Артур Ваха (Mr. Potato Head), Алексей Макрецкий (Mr. Pricklepants), Борис Улитин (Slinky Dog), Вадим Гущин (Hamm), Николай Басков (Ken)
Мировая премьера: 8 апреля 2011
Описание: Кен и Барби планируют романтический побег в тропический рай, но удастся ли им осуществить задуманное?..
Рейтинг
kinopoisk.ru: 7.657 (398)
imdb.com: 7.70 (513)
Качество: BDRip (tRuAVC)
Исходник: BD-Remux by DFCbit
Формат: Matroska
Видеокодек: AVC
Аудиокодек: AC3, DTS
Видео: 1920x1080 (16:9); 7215 Kbps; 23,976 fps
Аудио №1: Russian; AC3 EX; 640 Kbps; CBR; 6 ch
Аудио №2: Ukrainian; AC3 EX; 640 Kbps; CBR; 6 ch
Аудио №3: English; DTS ES; 1509 Kbps; CBR; 6 ch; 24 bit
Субтитры №1: Russian / forced
Субтитры №2: Russian
Субтитры №3: Ukrainian / forced
Субтитры №4: Ukrainian
Субтитры №5: English / forced
Субтитры №6: English
Субтитры №7: English / SDH





General
Unique ID : 187786419621524073537474254956281331536 (0x8D46594F88982DB49CD156946A81FF50)
Complete name : Hawaiian.Vacation.2011.1080p.BluRay.Rus.Ukr.Eng-Skazhutin.mkv
Format : Matroska
Format version : Version 2
File size : 422 MiB
Duration : 5mn 53s
Overall bit rate : 10.0 Mbps
Encoded date : UTC 2011-12-08 04:55:35
Writing application : mkvmerge v5.1.0 ('And so it goes') built on Nov 28 2011 23:58:28
Writing library : libebml v1.2.3 + libmatroska v1.3.0
Attachment : Yes

Video
ID : 1
Format : AVC
Format/Info : Advanced Video Codec
Format profile : High@L4.1
Format settings, CABAC : Yes
Format settings, ReFrames : 4 frames
Codec ID : V_MPEG4/ISO/AVC
Duration : 5mn 53s
Bit rate : 7 017 Kbps
Width : 1 920 pixels
Height : 1 080 pixels
Display aspect ratio : 16:9
Frame rate : 23.976 fps
Color space : YUV
Chroma subsampling : 4:2:0
Bit depth : 8 bits
Scan type : Progressive
Bits/(Pixel*Frame) : 0.141
Stream size : 296 MiB (70%)
Title : Hawaiian.Vacation.2011.1080p.BluRay.Rus.Ukr.Eng-Skazhutin
Writing library : x264 core 119 r2106kMod 07efeb4
Encoding settings : cabac=1 / ref=4 / deblock=1:-1:-1 / analyse=0x3:0x133 / me=tesa / subme=11 / psy=1 / fade_compensate=0.00 / psy_rd=0.70:0.00 / mixed_ref=1 / me_range=48 / chroma_me=1 / trellis=2 / 8x8dct=1 / cqm=0 / deadzone=21,11 / fast_pskip=1 / chroma_qp_offset=-2 / threads=12 / sliced_threads=0 / nr=0 / decimate=1 / interlaced=0 / bluray_compat=0 / constrained_intra=0 / bframes=6 / b_pyramid=2 / b_adapt=2 / b_bias=0 / direct=1 / weightb=1 / open_gop=0 / weightp=2 / keyint=250 / keyint_min=23 / scenecut=40 / intra_refresh=0 / rc_lookahead=40 / rc=crf / mbtree=0 / crf=16.5000 / qcomp=0.70 / qpmin=0 / qpmax=69 / qpstep=4 / vbv_maxrate=50000 / vbv_bufsize=62500 / crf_max=0.0 / nal_hrd=none / ip_ratio=1.40 / pb_ratio=1.30 / aq=2:0.60
Language : English
Matrix coefficients : BT.709-5, BT.1361, IEC 61966-2-4 709, SMPTE RP177

Audio #1
ID : 2
Format : AC-3
Format/Info : Audio Coding 3
Mode extension : CM (complete main)
Codec ID : A_AC3
Duration : 5mn 53s
Bit rate mode : Constant
Bit rate : 640 Kbps
Channel(s) : 6 channels
Channel positions : Front: L C R, Side: L R, LFE
Sampling rate : 48.0 KHz
Bit depth : 16 bits
Compression mode : Lossy
Stream size : 27.0 MiB (6%)
Title : Dub
Language : Russian

Audio #2
ID : 3
Format : AC-3
Format/Info : Audio Coding 3
Mode extension : CM (complete main)
Codec ID : A_AC3
Duration : 5mn 53s
Bit rate mode : Constant
Bit rate : 640 Kbps
Channel(s) : 6 channels
Channel positions : Front: L C R, Side: L R, LFE
Sampling rate : 48.0 KHz
Bit depth : 16 bits
Compression mode : Lossy
Stream size : 27.0 MiB (6%)
Title : Dub
Language : Ukrainian

Audio #3
ID : 4
Format : DTS
Format/Info : Digital Theater Systems
Format profile : ES
Codec ID : A_DTS
Duration : 5mn 53s
Bit rate mode : Constant
Bit rate : 1 510 Kbps
Channel(s) : 6 channels
Channel positions : Front: L C R, Side: L R, LFE
Sampling rate : 48.0 KHz
Bit depth : 24 bits
Compression mode : Lossy
Stream size : 63.7 MiB (15%)
Title : Eng
Language : English

Text #1
ID : 5
Format : UTF-8
Codec ID : S_TEXT/UTF8
Codec ID/Info : UTF-8 Plain Text
Title : forced
Language : Russian

Text #2
ID : 6
Format : UTF-8
Codec ID : S_TEXT/UTF8
Codec ID/Info : UTF-8 Plain Text
Language : Russian

Text #3
ID : 7
Format : UTF-8
Codec ID : S_TEXT/UTF8
Codec ID/Info : UTF-8 Plain Text
Title : forced
Language : Ukrainian

Text #4
ID : 8
Format : UTF-8
Codec ID : S_TEXT/UTF8
Codec ID/Info : UTF-8 Plain Text
Language : Ukrainian

Text #5
ID : 9
Format : UTF-8
Codec ID : S_TEXT/UTF8
Codec ID/Info : UTF-8 Plain Text
Title : forced
Language : English

Text #6
ID : 10
Format : UTF-8
Codec ID : S_TEXT/UTF8
Codec ID/Info : UTF-8 Plain Text
Language : English

Text #7
ID : 11
Format : UTF-8
Codec ID : S_TEXT/UTF8
Codec ID/Info : UTF-8 Plain Text
Title : SDH
Language : English

Код:
Код: Выделить всё
[color=black]y4m [info]: 1920x1080p 1:1 @ 24000/1001 fps (cfr)
x264 [info]: using SAR=1/1
x264 [info]: using cpu capabilities: MMX2 SSE2Fast SSSE3 FastShuffle SSE4.2 AVX
x264 [info]: profile High, level 4.1
x264 [info]: frame I:90    Avg QP:12.85  size:298945
x264 [info]: frame P:2788  Avg QP:15.46  size: 62395
x264 [info]: frame B:5602  Avg QP:18.08  size: 21087
x264 [info]: consecutive B-frames:  3.8%  6.3% 64.1% 14.2%  4.8%  6.3%  0.5%
x264 [info]: mb I  I16..4: 16.6% 66.0% 17.3%
x264 [info]: mb P  I16..4:  1.9%  8.5%  1.3%  P16..4: 35.1% 20.3%  6.8%  1.6%  0.2%    skip:24.4%
x264 [info]: mb B  I16..4:  0.3%  1.2%  0.1%  B16..8: 25.8%  8.9%  1.8%  direct: 4.5%  skip:57.4%  L0:34.5% L1:51.9% BI:13.6%
x264 [info]: 8x8 transform intra:71.8% inter:52.6%
x264 [info]: coded y,uvDC,uvAC intra: 77.6% 87.7% 71.7% inter: 12.8% 18.3% 7.3%
x264 [info]: i16 v,h,dc,p: 17% 14% 15% 54%
x264 [info]: i8 v,h,dc,ddl,ddr,vr,hd,vl,hu: 17% 19% 12%  6%  8%  9%  9%  9% 11%
x264 [info]: i4 v,h,dc,ddl,ddr,vr,hd,vl,hu: 21% 17% 14%  5% 10% 10%  9%  6%  7%
x264 [info]: i8c dc,h,v,p: 35% 29% 18% 18%
x264 [info]: Weighted P-Frames: Y:1.7% UV:1.4%
x264 [info]: ref P L0: 64.9%  6.8% 17.8%  6.6%  3.9%  0.0%
x264 [info]: ref B L0: 82.0% 14.2%  3.8%
x264 [info]: ref B L1: 88.4% 11.6%
x264 [info]: kb/s:7215.24
[/color]encoded 8480 frames, 1.75 fps, 7215.26 kb/s
x264 [info]: ended at Thu Dec 08 12:15:24 2011
x264 [info]: encoding duration 1:21:34







Автор рипа: Skazhutin
Аватара пользователя
Korsar
Помощник Администратора-Корсар
 
Месяцев на трекере: 6Месяцев на трекере: 6Месяцев на трекере: 6Месяцев на трекере: 6Месяцев на трекере: 6Месяцев на трекере: 6
 
Зарегистрирован: 15 авг 2016, 17:15
В кошельке: 21,367.00
Банк: 0.00
Откуда: CCCР
Флаги:
СССР-2

Награды: 3
За отличные раздачи (2) За развитие форума (1)
  • Торрент
Автор: Korsar Хэш: ---
Добавлен: 03 дек 2016, 22:53 Приватный: Нет (DHT включён)
Статус: Проверен
Размер: 421.98 МБ (442 480 769 байт)
Изменил: Korsar (03 дек 2016, 23:08)
Скачали: 0 (Раздающих: 100%)
Причина:
---
Здоровье: 100%
Сидеров: 25 Личеров: 8
Скорость раздачи: 0 байт/сек Скорость скачивания: 0 байт/сек
Последний сидер: 7 часов 38 минут 39 секунд назад Последний личер: 7 часов 38 минут 39 секунд назад
Для скачивания торрента необходимо зарегистрироваться или войти на трекер.

Вернуться в Короткометражные (HD Video)

Выключите ADBLOCK!
проверить сайт
cron