logo
Международный русскоязычный
торрент-трекер
Menu

Doublon
Поделиться с друзьями: 
Голосуй за Корсар и получи 400 дублонов
Рейтинг торрент трекеров - UpTracker.ru

Том и Джерри. Золотая коллекция: Том первый / Tom & Jerry Golden Collection: Volume One (1940-1948, Мультфильм, BDRip 720p)

Сообщение mister.hats » 09 ноя 2018, 04:52

Том и Джерри. Золотая коллекция: Том первый / Tom & Jerry Golden Collection: Volume One


37 Remastered Theatrical Shorts



Год выпуска: 1940-1948
Жанр: Мультфильм, комедия, семейный
Страна: США
Продолжительность: 04:46:04 (37 ~ 00:07:43)
Перевод: Профессиональный (многоголосый закадровый), профессиональный (двухголосый закадровый), авторский, любительский

Режиссер: Джозеф Барбера, Уильям Ханн

Описание: Кот Том и мышонок Джерри - парочка, прославившаяся на весь мир. Уже несколько десятков лет Том гоняется за Джерри с неослабевающим азартом. Том придумывает всё новые и новые хитроумные уловки, чтобы поймать Джерри, но мышонок всё время выкручивается с не меньшей изобретательностью.



Кодек: х264
Качество: BDRip 720p
Видео: MPEG-4 AVC, 5000-11250 kbps, 982-984-986-988х720, 23,976 fps
Аудиo 1: Русский, 48 kHz, AC3, 1 ch, 192 kbps DVO (Омикрон)
Аудио 2: Русский, 48 kHz, AC3, 2 ch, 192 kbps MVO (R5)
Аудио 3: Русский, 48 kHz, AC3, 2 ch, 224 kbps DVO (ИДДК)
Аудио 4: Русский, 48 kHz, AC3, 2 ch, 192 kbps MVO (Магия)
Аудио 5: Русский, 48 kHz, AC3, 2 ch, 192 kbps DVO (Видеобаза)
Аудио 6: Русский, 48 kHz, AC3, 1 ch, 192 kbps AVO (Живов)
Аудио 7: Русский, 48 kHz, AC3, 1 ch, 96 kbps VO (ДММ / Техинвест)
Аудио 8: Английский, 48 kHz, AC3, 1 ch, 192 kbps
Субтитры: Русские, украинские, английские

ВНИМАНИЕ: в серии 14. The Million Dollar Cat нет перевода MVO (R5), т.к. этого мультика нет в издании "Tom And Jerry. Classic Collection", т.е. для нее получается (6 шт. + оригинал).
А в четырех сериях: 10. The Lonesome Mouse, 11. The Yankee Doodle Mouse, 25. Trap Happy, 33. The Invisible Mouse - имеется по 2 версии перевода ИДДК, т.е. для них получается (8 шт. + оригинал).


01. За что наказали кота / Puss Gets The Boot / (1940)
02. Поздний ужин / The Midnight Snack / (1941)
03. Ночь перед Рождеством / The Night Before Christmas / (1941)
04. Кот-трусишка / Fraidy Cat / (1942)
05. Пес - нам не товарищ / Dog Trouble / (1942)
06. Гости не должны скучать / Puss N' Toots / (1942)
07. Давай сыграем в кегли / The Bowling Alley-Cat / (1942)
08. Пернатая заступница / Fine Feathered Friend / (1942)
09. К чему приводит жадность / Sufferin' Cats! / (1943)
10. Когда мышонку стало скучно / The Lonesome Mouse / (1943)
11. Мышонок-стратег / The Yankee Doodle Mouse / (1943)
12. Нелегко быть младенцем / Baby Puss / (1943)
13. Кот-стиляга / The Zoot Cat / (1944)
14. Кот миллионер / The Million Dollar Cat / (1944)
15. Телохранитель / The Bodyguard / (1944)
16. В собачьей шкуре / Puttin' On the Dog / (1944)
17. Неуловимый мышонок / Mouse Trouble / (1944)
18. Романтический ужин / The Mouse Comes To Dinner / (1945)
19. Мышонок в Нью-Йорке / Mouse In Manhattan / (1945)
20. Игра в гольф / Tee For Two / (1945)
21. Птичке хочется любви / Flirty Birdy / (1945)
22. Соблюдайте тишину / Quiet Please! / (1945)
23. Пришла весна / Springtime For Thomas / (1946)
24. Подкидыш / The Milky Wall / (1946)
25. Подкидыш / The Milky Wall / (1946)
26. Шумная серенада / Solid Serenade / (1946)
27. Том и Джерри на рыбалке / Cat Fishin' / (1947)
28. Перемирие / Part Time Pal / (1947)
29. Концерт для кота с оркестром! / The Cat Concerto / (1947)
30. Доктор Джекел и мистер Мышь / Dr. Jekyll And Mr. Mouse / (1947)
31. Приключения на пляже / Salt Water Tabby / (1947)
32. Если в доме завелись мыши / A Mouse In The House / (1947)
33. Мышонок-невидимка / The Invisible Mouse / (1947)
34. Надо друга выручать / Kitty Foiled / (1948)
35. Мирный договор / The Truce Hurts / (1948)
36. Старый, добрый Том / Old Rockin' Chair Tom / (1948)
37. Том-учитель / Professor Tom / (1948)

x264 [info]: frame I:76 Avg QP:16.49 size:111508
x264 [info]: frame P:3886 Avg QP:19.62 size: 47486
x264 [info]: frame B:9311 Avg QP:20.87 size: 16489

Общее
Уникальный идентификатор : 241543447166155590683274156880942988773 (0xB5B793661B6E7549AB096F3C64E1FDE5)
Полное имя : I:\Том и Джерри коллекция\1. За что наказали кота - Puss Gets The Boot (1940).mkv
Формат : Matroska
Версия формата : Version 2
Размер файла : 428 Мбайт
Продолжительность : 9 м. 16 с.
Общий поток : 6451 Кбит/сек
Дата кодирования : UTC 2018-11-06 01:42:36
Программа кодирования : mkvmerge v5.8.0 ('No Sleep / Pillow') built on Sep 2 2012 15:37:04
Библиотека кодирования : libebml v1.2.3 + libmatroska v1.3.0

Видео
Идентификатор : 1
Формат : AVC
Формат/Информация : Advanced Video Codec
Профиль формата : High@L4.1
Настройки формата : CABAC / 11 Ref Frames
Параметр CABAC формата : Да
Параметр RefFrames формата : 11 кадров
Идентификатор кодека : V_MPEG4/ISO/AVC
Продолжительность : 9 м. 16 с.
Битрейт : 5000 Кбит/сек
Ширина : 984 пикселя
Высота : 720 пикселей
Соотношение сторон : 4:3
Режим частоты кадров : Постоянный
Частота кадров : 23,976 (24000/1001) кадра/сек
Цветовое пространство : YUV
Субдискретизация насыщенности : 4:2:0
Битовая глубина : 8 бит
Тип развёртки : Прогрессивная
Бит/(Пиксели*Кадры) : 0.294
Размер потока : 322 Мбайт (75%)
Библиотека кодирования : x264 core 152 r2851kMod ba24899
Настройки программы : cabac=1 / ref=11 / deblock=1:-2:-2 / analyse=0x3:0x113 / me=umh / subme=11 / psy=1 / fade_compensate=0.00 / psy_rd=1.00:0.05 / mixed_ref=1 / me_range=48 / chroma_me=1 / trellis=2 / 8x8dct=1 / cqm=0 / deadzone=21,11 / fast_pskip=0 / chroma_qp_offset=-3 / threads=12 / lookahead_threads=3 / sliced_threads=0 / nr=0 / decimate=0 / interlaced=0 / bluray_compat=0 / constrained_intra=0 / bframes=12 / b_pyramid=2 / b_adapt=2 / b_bias=0 / direct=3 / weightb=1 / open_gop=0 / weightp=2 / keyint=240 / keyint_min=23 / scenecut=40 / intra_refresh=0 / rc_lookahead=40 / rc=2pass / mbtree=0 / bitrate=5000 / ratetol=1.0 / qcomp=0.60 / qpmin=0 / qpmax=39 / qpstep=4 / cplxblur=20.0 / qblur=0.5 / vbv_maxrate=50000 / vbv_bufsize=62500 / nal_hrd=none / filler=0 / ip_ratio=1.25 / pb_ratio=1.30 / aq=1:1.00
Язык : English
Default : Да
Forced : Нет
Цветовой диапазон : Limited
Основные цвета : BT.709
Характеристики трансфера : BT.709
Коэффициенты матрицы : BT.709

Аудио #1
Идентификатор : 2
Формат : AC-3
Формат/Информация : Audio Coding 3
Параметр Endianness формата : Big
Идентификатор кодека : A_AC3
Продолжительность : 9 м. 16 с.
Вид битрейта : Постоянный
Битрейт : 192 Кбит/сек
Каналы : 1 канал
Расположение каналов : Front: C
Частота : 48,0 КГц
Частота кадров : 31,250 кадров/сек (1536 SPF)
Битовая глубина : 16 бит
Метод сжатия : С потерями
Размер потока : 12,7 Мбайт (3%)
Заголовок : DVO (Омикрон)
Язык : Russian
Default : Да
Forced : Нет

Аудио #2
Идентификатор : 3
Формат : AC-3
Формат/Информация : Audio Coding 3
Параметр Endianness формата : Big
Идентификатор кодека : A_AC3
Продолжительность : 9 м. 16 с.
Вид битрейта : Постоянный
Битрейт : 192 Кбит/сек
Каналы : 2 канала
Расположение каналов : Front: L R
Частота : 48,0 КГц
Частота кадров : 31,250 кадров/сек (1536 SPF)
Битовая глубина : 16 бит
Метод сжатия : С потерями
Размер потока : 12,7 Мбайт (3%)
Заголовок : MVO (R5)
Язык : Russian
Default : Нет
Forced : Нет

Аудио #3
Идентификатор : 4
Формат : AC-3
Формат/Информация : Audio Coding 3
Параметр Endianness формата : Big
Идентификатор кодека : A_AC3
Продолжительность : 9 м. 16 с.
Вид битрейта : Постоянный
Битрейт : 224 Кбит/сек
Каналы : 2 канала
Расположение каналов : Front: L R
Частота : 48,0 КГц
Частота кадров : 31,250 кадров/сек (1536 SPF)
Битовая глубина : 16 бит
Метод сжатия : С потерями
Размер потока : 14,9 Мбайт (3%)
Заголовок : DVO (ИДДК)
Язык : Russian
Default : Нет
Forced : Нет

Аудио #4
Идентификатор : 5
Формат : AC-3
Формат/Информация : Audio Coding 3
Параметр Endianness формата : Big
Идентификатор кодека : A_AC3
Продолжительность : 9 м. 16 с.
Вид битрейта : Постоянный
Битрейт : 192 Кбит/сек
Каналы : 2 канала
Расположение каналов : Front: L R
Частота : 48,0 КГц
Частота кадров : 31,250 кадров/сек (1536 SPF)
Битовая глубина : 16 бит
Метод сжатия : С потерями
Размер потока : 12,7 Мбайт (3%)
Заголовок : MVO (Магия)
Язык : Russian
Default : Нет
Forced : Нет

Аудио #5
Идентификатор : 6
Формат : AC-3
Формат/Информация : Audio Coding 3
Параметр Endianness формата : Big
Идентификатор кодека : A_AC3
Продолжительность : 9 м. 16 с.
Вид битрейта : Постоянный
Битрейт : 192 Кбит/сек
Каналы : 2 канала
Расположение каналов : Front: L R
Частота : 48,0 КГц
Частота кадров : 31,250 кадров/сек (1536 SPF)
Битовая глубина : 16 бит
Метод сжатия : С потерями
Размер потока : 12,7 Мбайт (3%)
Заголовок : DVO (Видеобаза)
Язык : Russian
Default : Нет
Forced : Нет

Аудио #6
Идентификатор : 7
Формат : AC-3
Формат/Информация : Audio Coding 3
Параметр Endianness формата : Big
Идентификатор кодека : A_AC3
Продолжительность : 9 м. 16 с.
Вид битрейта : Постоянный
Битрейт : 192 Кбит/сек
Каналы : 1 канал
Расположение каналов : Front: C
Частота : 48,0 КГц
Частота кадров : 31,250 кадров/сек (1536 SPF)
Битовая глубина : 16 бит
Метод сжатия : С потерями
Размер потока : 12,7 Мбайт (3%)
Заголовок : AVO (Живов)
Язык : Russian
Default : Нет
Forced : Нет

Аудио #7
Идентификатор : 8
Формат : AC-3
Формат/Информация : Audio Coding 3
Параметр Endianness формата : Big
Идентификатор кодека : A_AC3
Продолжительность : 9 м. 16 с.
Вид битрейта : Постоянный
Битрейт : 96,0 Кбит/сек
Каналы : 1 канал
Расположение каналов : Front: C
Частота : 48,0 КГц
Частота кадров : 31,250 кадров/сек (1536 SPF)
Битовая глубина : 16 бит
Метод сжатия : С потерями
Размер потока : 6,37 Мбайт (1%)
Заголовок : VO (Техинвест)
Язык : Russian
Default : Нет
Forced : Нет

Аудио #8
Идентификатор : 9
Формат : AC-3
Формат/Информация : Audio Coding 3
Параметр Endianness формата : Big
Идентификатор кодека : A_AC3
Продолжительность : 9 м. 16 с.
Вид битрейта : Постоянный
Битрейт : 192 Кбит/сек
Каналы : 1 канал
Расположение каналов : Front: C
Частота : 48,0 КГц
Частота кадров : 31,250 кадров/сек (1536 SPF)
Битовая глубина : 16 бит
Метод сжатия : С потерями
Размер потока : 12,7 Мбайт (3%)
Заголовок : Original
Язык : English
Default : Нет
Forced : Нет

Текст #1
Идентификатор : 10
Формат : UTF-8
Идентификатор кодека : S_TEXT/UTF8
Идентификатор кодека/Информация : UTF-8 Plain Text
Язык : Russian
Default : Нет
Forced : Нет

Текст #2
Идентификатор : 11
Формат : UTF-8
Идентификатор кодека : S_TEXT/UTF8
Идентификатор кодека/Информация : UTF-8 Plain Text
Язык : Ukrainian
Default : Нет
Forced : Нет

Текст #3
Идентификатор : 12
Формат : UTF-8
Идентификатор кодека : S_TEXT/UTF8
Идентификатор кодека/Информация : UTF-8 Plain Text
Язык : English
Default : Нет
Forced : Нет




Тот кто не с нами, тот против нас
КУБКИ

СТАЖ

МЕДАЛИ
Награды:51

За помощь проекту (7) Лучший по количеству кубков (12) За отличные раздачи и качество (21) За подробное оформление раздач (2) За отличные комментарии (1) Верный Сид (8)

Аватара пользователя
Тортуга
mister.hats
Заслуженный Корсар-Вип
  • Торрент
Для скачивания торрента необходимо зарегистрироваться или войти на трекер.

Сообщение kwazar312 » 09 ноя 2018, 21:26

Уважаемый mister.hats,большое спасибо за этот сборник мультфильмов.Удачи ВАМ.
КУБКИ

СТАЖ

МЕДАЛИ
Награды:64

За помощь проекту (7) Лучший по количеству кубков (16) За отличные комментарии (10) Верный Сид (25) За участие в конкурсах/играх (6)

Аватара пользователя
kwazar312
Заслуженный Корсар-Вип


Вернуться в Сборники зарубежных мультфильмов (HD Video)



Uptime по данным Ping-Admin.Ru - сервиса мониторинга доступности сайтов
Рейтинг@Mail.ru Голосуйте за наш сайт в каталоге Rubo.Ru