logo
Международный русскоязычный
торрент-трекер
Menu

Магазин-KorsaRDoublon

Поделиться с друзьями: 
Голосуй и получи дублоны
Рейтинг торрент трекеров - UpTracker.ru

Тихая застава (2010, драма, военный, BDRip 720p) - KORSAR

Сообщение lesnik125 » 20 ноя 2016, 16:12

«Краем мы попали на разлом. Раем нам покажется потом...»


Страна: Россия
Жанр: драма, военный
Год выпуска: 2010
Продолжительность: 01:32:09

Режиссер: Сергей Маховиков

В ролях: Андрей Чадов (Панков), Сергей Селин (Грицюк), Игорь Савочкин (Бобровский), Раджаб Хусейнов (Закир), Фаридуншо Рахматуллоев (Файзулло), Нина Корниенко (Ольга Николаевна, учительница), Нино Нинидзе (Юля), Юрий Коновалов (Дуров, пограничник), Александр Алёшкин (Трассер), Азамат Нигманов (Азамат, пограничник), Адель Зайнуллин (пограничник), Лариса Шахворостова (Люба, жена Бобровского)

Описание: Бой на 12-й пограничной заставе Московского погранотряда в Республике Таджикистан произошел во вторник 13 июля 1993 года. Афганские и таджикские боевики попытались прорваться на территорию этой страны. Российские военные 11 часов отражали атаки противника, 25 человек погибло. После этого наши отступили. Позднее в тот же день застава была отбита. По итогам боя шестеро пограничников были удостоены звания Героя Российской Федерации, в том числе четверо - посмертно.



Семпл

Качество: BDRip
Контейнер: MKV

Видео: AVC, 1280x544 (2.35:1), 6153 kbps, 23,976 fps, 0,369 bpp
Аудио: русский / AC3 / 5.1 / 48 kHz / 640 kbps
Навигация по главам: есть

************************************************************************
x264 [info]: frame I:1165 Avg QP:15.96 size:157865
x264 [info]: frame P:29289 Avg QP:19.79 size: 59977
x264 [info]: frame B:102119 Avg QP:22.31 size: 22636
************************************************************************
Format : Matroska
Format version : Version 2
File size : 4.37 GiB
Duration : 1h 32mn
Overall bit rate : 6 794 Kbps
Movie name : = Тихая застава (2010) BDRip 720p by SC Kosmos =
Encoded date : UTC 2016-06-13 21:19:07
Writing application : mkvmerge v5.8.0 ('No Sleep / Pillow') built on Sep 2 2012 15:37:04
Writing library : libebml v1.2.3 + libmatroska v1.3.0
Attachment : Yes

Video
ID : 1
Format : AVC
Format/Info : Advanced Video Codec
Format profile : High@L4.1
Format settings, CABAC : Yes
Format settings, ReFrames : 10 frames
Codec ID : V_MPEG4/ISO/AVC
Duration : 1h 32mn
Bit rate : 6 153 Kbps
Width : 1 280 pixels
Height : 544 pixels
Display aspect ratio : 2.35:1
Frame rate : 23.976 fps
Color space : YUV
Chroma subsampling : 4:2:0
Bit depth : 8 bits
Scan type : Progressive
Bits/(Pixel*Frame) : 0.369
Stream size : 3.87 GiB (89%)
Title : Тихая застава (2010) BDRip 720p by SC Kosmos
Writing library : x264 core 146 r2538 121396c
Encoding settings : cabac=1 / ref=10 / deblock=1:-1:-1 / analyse=0x3:0x113 / me=umh / subme=11 / psy=1 / psy_rd=1.00:0.00 / mixed_ref=1 / me_range=32 / chroma_me=1 / trellis=2 / 8x8dct=1 / cqm=0 / deadzone=21,11 / fast_pskip=0 / chroma_qp_offset=-2 / threads=12 / lookahead_threads=3 / sliced_threads=0 / nr=0 / decimate=0 / interlaced=0 / bluray_compat=0 / constrained_intra=0 / bframes=10 / b_pyramid=2 / b_adapt=2 / b_bias=0 / direct=3 / weightb=1 / open_gop=0 / weightp=2 / keyint=240 / keyint_min=23 / scenecut=40 / intra_refresh=0 / rc_lookahead=40 / rc=2pass / mbtree=1 / bitrate=6153 / ratetol=1.0 / qcomp=0.60 / qpmin=0 / qpmax=69 / qpstep=4 / cplxblur=20.0 / qblur=0.5 / vbv_maxrate=62500 / vbv_bufsize=78125 / nal_hrd=none / filler=0 / ip_ratio=1.40 / aq=1:1.00
Language : Russian
Default : Yes
Forced : No

Audio
ID : 2
Format : AC-3
Format/Info : Audio Coding 3
Mode extension : CM (complete main)
Codec ID : A_AC3
Duration : 1h 32mn
Bit rate mode : Constant
Bit rate : 640 Kbps
Channel(s) : 6 channels
Channel positions : Front: L C R, Side: L R, LFE
Sampling rate : 48.0 KHz
Bit depth : 16 bits
Compression mode : Lossy
Stream size : 422 MiB (9%)
Language : Russian
Default : Yes
Forced : No

Menu
00:00:00.000 : en:00:00:00.000
00:08:39.102 : en:00:08:39.102
00:16:49.217 : en:00:16:49.217
00:25:13.637 : en:00:25:13.637
00:36:15.298 : en:00:36:15.298
00:44:21.784 : en:00:44:21.784
00:54:13.459 : en:00:54:13.459
01:03:44.237 : en:01:03:44.237
01:13:11.053 : en:01:13:11.053
01:20:49.970 : en:01:20:49.970
01:28:03.278 : en:01:28:03.278



Аватара пользователя
lesnik125
Опытный Релизёр-Корсар
 
Месяцев на трекере: 8Месяцев на трекере: 8Месяцев на трекере: 8Месяцев на трекере: 8Месяцев на трекере: 8Месяцев на трекере: 8Месяцев на трекере: 8Месяцев на трекере: 8
 

Награды: 3
За отличные раздачи (2) За оформление раздач (1)
  • Торрент
Для скачивания торрента необходимо зарегистрироваться или войти на трекер.

Сообщение mister.hats » 20 ноя 2016, 16:20

lesnik125 Спасибо. :hi: :drinks:

Тот кто не с нами, тот против нас
Аватара пользователя
mister.hats
Корсар-Вип
 
Месяцев на трекере: 9Месяцев на трекере: 9Месяцев на трекере: 9Месяцев на трекере: 9Месяцев на трекере: 9Месяцев на трекере: 9Месяцев на трекере: 9Месяцев на трекере: 9Месяцев на трекере: 9
 

Награды: 4
За помощь проекту (3) Верный Сид (1)

Сообщение kwazar312 » 11 янв 2017, 14:55

Фильм,в котором присутствует имя С.Маховикова,должен быть хорошим,скачиваю и смотрю.Уважаемый lesnik125,большое спасибо за разбачу
Аватара пользователя
kwazar312
Корсар-Вип
 
Месяцев на трекере: 9Месяцев на трекере: 9Месяцев на трекере: 9Месяцев на трекере: 9Месяцев на трекере: 9Месяцев на трекере: 9Месяцев на трекере: 9Месяцев на трекере: 9Месяцев на трекере: 9
 

Награды: 5
За помощь проекту (1) За отличные комментарии (3) Верный Сид (1)


Вернуться в Наше современное кино (HD Video)



мониторинг сайтов