logo
Международный русскоязычный
торрент-трекер
Menu
Поделиться с друзьями: 
Голосуй за Корсар и получи 500 дублонов
Рейтинг торрент трекеров - UpTracker.ru

Ты умеешь хранить секреты? / Can You Keep a Secret? (2019, Мелодрама, комедия, WEB-DLRip-AVC) | iTunes

Сообщение Korsarka » 15 дек 2019, 00:39

Название: Ты умеешь хранить секреты?
Оригинальное название: Can You Keep a Secret?
Год выпуска: 2019
Жанр: Мелодрама, комедия
Режиссер: Элиз Дюран
В ролях: Александра Даддарио, Тайлер Хэклин, Сунита Мани, Кимико Гленн, Лаверн Кокс, Джуда Фридландер, Кейт Кастонгуэй, Сэм Асгари, Эшлин Алесси, Бобби Тисдэйл, Ольга Н. Богданова, Дэвид Чарльз Эберт

Описание: Эмма с треском провалила совещание и возвращается из командировки самолётом. Настроение — хуже некуда, вдобавок девушка боится летать, поэтому хорошенько принимает на грудь перед посадкой. Сочувствующая стюардесса предлагает ей свободное место в первом классе, где разносят шампанское, поэтому при первой же турбулентности от страха Эмма начинает вываливать все свои секреты сидящему рядом мужчине. Она рассказывает ему всё — от нюансов личной жизни до офисных взаимоотношений. И каково же было удивление девушки, когда на следующий день выяснилось, что тот самый сосед по самолёту — её босс и основатель компании — пришёл в их офис проверить работу отделения.



Страна: США
Студия: BCDF Pictures, Big Indie Pictures
Продолжительность: 01:34:36
Перевод: Дублированный | iTunes

Формат: MKV
Качество: WEB-DLRip-AVC
Видео: MPEG-4 AVC, 1024x552 (1.85:1), 23.976 fps, 1799 Kbps, 0.133 bit/pixel
Аудио : 48 kHz, AC3, 5.1, 384 Kbps | iTunes | RUS |
Субтитры: Русские, английские

General
Unique ID : 238434254829657389056799300367414183937 (0xB360C4619C24B24683BE2DBFE48FC801)
Complete name : F:CAN.YOU.KEEP.A.SECRET.2019.WEB-DL.AVC.ExKinoRay.mkv
Format : Matroska
Format version : Version 2
File size : 1.44 GiB
Duration : 1 h 34 min
Overall bit rate : 2 181 kb/s
Movie name : CAN YOU KEEP A SECRET 2019 from ExKinoRay
Encoded date : UTC 2019-12-04 03:42:56
Writing application : mkvmerge v5.6.0 ('Kenya Kane') built on May 27 2012 16:44:04
Writing library : libebml v1.2.3 + libmatroska v1.3.0

Video
ID : 1
Format : AVC
Format/Info : Advanced Video Codec
Format profile : High@L4.1
Format settings, CABAC : Yes
Format settings, ReFrames : 11 frames
Codec ID : V_MPEG4/ISO/AVC
Duration : 1 h 34 min
Bit rate : 1 799 kb/s
Width : 1 024 pixels
Height : 552 pixels
Display aspect ratio : 1.85:1
Frame rate mode : Constant
Frame rate : 23.976 (24000/1001) FPS
Original frame rate : 23.976 (23976/1000) FPS
Color space : YUV
Chroma subsampling : 4:2:0
Bit depth : 8 bits
Scan type : Progressive
Bits/(Pixel*Frame) : 0.133
Stream size : 1.16 GiB (80%)
Title : Enigma
Writing library : x264 core 152 r2851 ba24899
Encoding settings : cabac=1 / ref=11 / deblock=1:-2:-2 / analyse=0x3:0x113 / me=umh / subme=10 / psy=1 / psy_rd=1.05:0.05 / mixed_ref=1 / me_range=32 / chroma_me=1 / trellis=2 / 8x8dct=1 / cqm=0 / deadzone=21,11 / fast_pskip=0 / chroma_qp_offset=-3 / threads=12 / lookahead_threads=3 / sliced_threads=0 / nr=0 / decimate=0 / interlaced=0 / bluray_compat=0 / constrained_intra=0 / bframes=10 / b_pyramid=2 / b_adapt=2 / b_bias=0 / direct=3 / weightb=1 / open_gop=0 / weightp=2 / keyint=240 / keyint_min=23 / scenecut=40 / intra_refresh=0 / rc=2pass / mbtree=0 / bitrate=1799 / ratetol=1.0 / qcomp=0.60 / qpmin=0 / qpmax=51 / qpstep=4 / cplxblur=20.0 / qblur=0.5 / ip_ratio=1.40 / pb_ratio=1.30 / aq=1:1.00
Default : Yes
Forced : No
Color range : Limited
Color primaries : BT.709
Transfer characteristics : BT.709
Matrix coefficients : BT.709

Audio
ID : 2
Format : AC-3
Format/Info : Audio Coding 3
Mode extension : CM (complete main)
Format settings, Endianness : Big
Codec ID : A_AC3
Duration : 1 h 34 min
Bit rate mode : Constant
Bit rate : 384 kb/s
Channel(s) : 6 channels
Channel positions : Front: L C R, Side: L R, LFE
Sampling rate : 48.0 kHz
Frame rate : 31.250 FPS (1536 spf)
Compression mode : Lossy
Stream size : 260 MiB (18%)
Title : iTunes
Language : Russian
Default : Yes
Forced : No

Text #1
ID : 3
Format : UTF-8
Codec ID : S_TEXT/UTF8
Codec ID/Info : UTF-8 Plain Text
Title : Full
Language : Russian
Default : No
Forced : No

Text #2
ID : 4
Format : UTF-8
Codec ID : S_TEXT/UTF8
Codec ID/Info : UTF-8 Plain Text
Title : Full
Language : English
Default : No
Forced : No

Text #3
ID : 5
Format : UTF-8
Codec ID : S_TEXT/UTF8
Codec ID/Info : UTF-8 Plain Text
Title : SDH
Language : English
Default : No
Forced : No






Релиз от:

Автор релиза:
КУБКИ

СТАЖ

МЕДАЛИ
Награды:66

За активную помощь проекту (1) Лучший по количеству кубков (12) За отличные раздачи и качество (28) За подробное оформление раздач (2) За отличные комментарии (8) Почётный форумчанин (2) Верный Сид (10)

Аватара пользователя
Korsarka
Уважаемый Релизёр-Корсар
  • Торрент
Для скачивания торрента необходимо зарегистрироваться или войти на трекер.

Вернуться в Зарубежное кино (2011-2020)



Рейтинг@Mail.ru