logo
Международный русскоязычный
торрент-трекер
Menu

Doublon
Поделиться с друзьями: 
Голосуй за Корсар и получи 400 дублонов
Рейтинг торрент трекеров - UpTracker.ru

The Beatles: Sgt. Pepper's Lonely Hearts Club Band (1967, Pop Rock, Blu-ray 1080i) | Audio

Сообщение Korsar » 24 июл 2017, 22:58

The Beatles: Sgt. Pepper's Lonely Hearts Club Band

Год выхода: 1967
Жанр: Rock, Pop Rock, Art Rock, Baroque Pop
Исполнитель: John Lennon – lead, harmony and background vocals; rhythm, acoustic and lead guitars; Hammond organ and final piano E chord; harmonica, tape loops, sound effects, and comb and tissue paper; handclaps, tambourine and maracas; Paul McCartney – lead, harmony and background vocals; bass and lead guitars; electric and acoustic pianos, Lowrey and Hammond organs; handclaps; vocalisations, tape loops, sound effects, and comb and tissue paper; George Harrison – harmony and background vocals; lead, rhythm and acoustic guitars; sitar; tamboura; harmonica and kazoo; handclaps and maracas; lead vocals on "Within You Without You"; Ringo Starr – drums, congas, tambourine, maracas, handclaps and tubular bells; lead vocals on "With a Little Help from My Friends"; harmonica; final piano E chord

Описание:
Rolling Stone 500 Greatest Albums of All Time - Rated 1/500! This is the first time Sgt. Pepper’s Lonely Hearts Club Band has been remixed and presented with additional session recordings, and it is the first Beatles album to be remixed and expanded since the 2003 release of Let It Be… Naked. To create the new stereo and 5.1 surround audio mixes for ‘Sgt. Pepper,’ producer Giles Martin and mix engineer Sam Okell worked with an expert team of engineers and audio restoration specialists at Abbey Road Studios in London. All of the Anniversary Edition releases include Martin’s new stereo mix of the album, which was sourced directly from the original four-track session tapes and guided by the original, Beatles-preferred mono mix produced by his father, George Martin. Upon its release in 1967, the album held the number one spot for 15 weeks and won a Grammy Award for Album of The Year.
Blu-Ray: Fully restored 1992 documentary "The Making Of Sgt. Pepper", including interviews with Paul, George and Ringo and fascinating in-the-studio footage introduced by George Martin; Restored promotional films for 'A Day In The Life', 'Strawberry Fields Forever' and 'Penny Lane'; 2017 Giles Martin 5.1 surround sound mix and high-resolution stereo audio in 96KHz/24-bit of "Sgt. Pepper's Lonely Hearts Club Band" plus 'Strawberry Fields Forever' and 'Penny Lane'.

Sgt. Pepper's Lonely Hearts Club Band
01. Sgt. Pepper's Lonely Hearts Club Band 2:01
02. With A Little Help From My Friends 2:45
03. Lucy In The Sky With Diamonds 3:27
04. Getting Better 2:47
05. Fixing A Hole 2:37
06. She's Leaving Home 3:36
07. Being For The Benefit Of Mr. Kite! 2:38
08. Within You Without You 5:07
09. When I'm Sixty-Four 2:40
10. Lovely Rita 2:45
11. Good Morning Good Morning 2:34
12. Sgt. Pepper's Lonely Hearts Club Band (Reprise) 1:20
13. A Day In The Life 5:31
Strawberry Fields Forever/Penny Lane
14. Strawberry Fields Forever 4:10
15. Penny Lane 3:03



Выпущено: США | Universal Music
Продолжительность: 00:39:44 + 00:49:53


  

DISC INFO:

Disc Title:     The Beatles.Sgt. Pepper's Lonely Hearts Club Band.2017.BD1080p
Disc Size:      36 796 080 808 bytes
Protection:     AACS
BD-Java:        No
BDInfo:         0.5.8

PLAYLIST REPORT:

Name:                   00003.MPLS
Length:                 0:49:53.824 (h:m:s.ms)
Size:                   15 748 104 192 bytes
Total Bitrate:          42,08 Mbps

VIDEO:

Codec                   Bitrate             Description    
-----                   -------             -----------    
MPEG-4 AVC Video        32980 kbps          1080i / 29,970 fps / 16:9 / High Profile 4.1

AUDIO:

Codec                           Language        Bitrate         Description    
-----                           --------        -------         -----------    
LPCM Audio                      English         2304 kbps       2.0 / 48 kHz / 2304 kbps / 24-bit
LPCM Audio                      English         2304 kbps       2.0 / 48 kHz / 2304 kbps / 24-bit
LPCM Audio                      English         2304 kbps       2.0 / 48 kHz / 2304 kbps / 24-bit

SUBTITLES:

Codec                           Language        Bitrate         Description    
-----                           --------        -------         -----------    
Presentation Graphics           English         56,209 kbps                    
Presentation Graphics           Spanish         42,709 kbps                    
Presentation Graphics           French          44,251 kbps                    
Presentation Graphics           Dutch           42,825 kbps                    
Presentation Graphics           Portuguese      43,232 kbps                    
Presentation Graphics           German          40,882 kbps                    
Presentation Graphics           Italian         43,782 kbps                    

FILES:

Name            Time In         Length          Size            Total Bitrate  
----            -------         ------          ----            -------------  
00000.M2TS      0:00:00.000     0:48:53.597     15 728 695 296  42 893          
00001.M2TS      0:48:53.597     0:00:59.225     18 124 800      2 448          
00005.M2TS      0:49:52.823     0:00:01.000     1 284 096       10 263

PLAYLIST REPORT:

Name:                   00001.MPLS
Length:                 0:39:44.515 (h:m:s.ms)
Size:                   12 462 723 072 bytes
Total Bitrate:          41,81 Mbps

VIDEO:

Codec                   Bitrate             Description    
-----                   -------             -----------    
MPEG-4 AVC Video        18000 kbps          1080i / 29,970 fps / 16:9 / High Profile 4.1

AUDIO:

Codec                           Language        Bitrate         Description    
-----                           --------        -------         -----------    
DTS-HD Master Audio             English         7184 kbps       5.1 / 96 kHz / 7184 kbps / 24-bit (DTS Core: 5.1 / 48 kHz / 1509 kbps / 24-bit)
Dolby TrueHD Audio              English         8094 kbps       5.1 / 96 kHz / 8094 kbps / 24-bit (AC3 Embedded: 5.1-EX / 48 kHz / 640 kbps)
LPCM Audio                      English         4608 kbps       2.0 / 96 kHz / 4608 kbps / 24-bit

SUBTITLES:

Codec                           Language        Bitrate         Description    
-----                           --------        -------         -----------    
Presentation Graphics           English         0,005 kbps                      
Presentation Graphics           Spanish         0,005 kbps                      
Presentation Graphics           French          0,005 kbps                      
Presentation Graphics           Dutch           0,005 kbps                      
Presentation Graphics           Portuguese      0,005 kbps                      
Presentation Graphics           German          0,005 kbps                      
Presentation Graphics           Italian         0,005 kbps                      

FILES:

Name            Time In         Length          Size            Total Bitrate  
----            -------         ------          ----            -------------  
00006.M2TS      0:00:00.000     0:39:44.515     12 462 723 072  41 812

Technical Specs
Blu-ray
BD-50 Dual-Layer Disc

Video Resolution/Codec
1080i/AVC MPEG-4

Aspect Ratio(s)
TBA

Audio Formats

English DTS-HD MA 5.1 (96 kHz / 7184 kbps / 24-bit)
English TrueHD 5.1 (96 kHz / 8094 kbps / 24-bit)
English LPCM 2.0 (96 kHz / 4608 kbps / 24-bit)
English LPCM 2.0 (48 kHz / 2304 kbps / 24-bit)


Subtitles/Captions
English
Dutch
French
German
Italian
Portuguese
Spanish

Supplements
Visual Content
The Making Of Sgt. Pepper (1992) 49:53
Promotional Films
A Day In The Life 5:10
Strawberry Fields Forever 4:21
Penny Lane 3:08

Боцман
КУБКИ

СТАЖ

МЕДАЛИ
Награды:32

За помощь проекту (2) Лучший по количеству кубков (2) За отличные раздачи и качество (13) За подробное оформление раздач (1) За отличные комментарии (1) Верный Сид (11) За участие в конкурсах/играх (2)

Аватара пользователя
СССР
Korsar
Заслуженный Корсар-Вип+
  • Торрент
Для скачивания торрента необходимо зарегистрироваться или войти на трекер.

Вернуться в Музыка (HD Audio)



Uptime по данным Ping-Admin.Ru - сервиса мониторинга доступности сайтов
Рейтинг@Mail.ru Голосуйте за наш сайт в каталоге Rubo.Ru