logo
Международный русскоязычный
торрент-трекер
Menu
Doublon
Поделиться с друзьями: 
Голосуй за Корсар и получи 400 дублонов
Рейтинг торрент трекеров - UpTracker.ru

Такси: Квадрология / Taxi: Quadrilogy (1998-2007, боевик, комедия, BDRip 1080p)

Сообщение kisa1980 » 03 май 2018, 20:44



Название: Такси: Квадрология
Оригинальное название: Taxi: Quadrilogy
Год выхода: 1998, 2000, 2003, 2007 г.,
Жанр: Боевик, комедия
Продолжительность: 01:29:50 | 01:28:25 | 01:27:24 | 01:37:26


#777
Год выпуска: 1998
Страна: Франция
Жанр: Боевик, комедия
Продолжительность: 01:29:50
Перевод: Профессиональный (полное дублирование) со вставками многоголосого перевода
Перевод: Профессиональный (многоголосый, закадровый) РТР/СТС
Перевод: Профессиональный (двухголосый, закадровый) Пирамида
Перевод: Профессиональный (двухголосый, закадровый) Союз-видео
Перевод: Авторский (одноголосый, закадровый) А.Гаврилов
Перевод: Авторский (одноголосый, закадровый) М.Яроцкий
Перевод: Авторский (одноголосый, закадровый) Ю.Сербин
Перевод: Авторский (одноголосый, закадровый) (неизвестный)
Субтитры: Русские, английские
Режиссер: Жерар Пирес
В ролях: Сами Насери, Фредерик Дифенталь, Марион Котийяр, Эмма Сьоберг, Бернар Фарси, Мануэла Гурари, Эдуард Монтут, Дэн Херцберг, Жорж Нери, Рихард Заммель

О фильме: Молодой таксист Даниэль помешан на быстрой езде. Как ураган проносится он по извилистым улицам Марселя на своем мощном ревущем звере «Пежо», пугая пассажиров и прохожих. Неподкупный полицейский Эмильен вынуждает его помочь в поимке банды грабителей, ускользающих от полиции на своих неуловимых «Мерседесах». И до самого конца не ясно, кто же сможет удержаться на крутом вираже.



Качество: BDRip 1080p
Формат: MKV
Видео: MPEG4 Video (H264), 1920x816, 23.976fps, 11.0 Mbps
Аудио #01: Русский, Dolby AC3, 48000 Hz, 6ch, 448 kbps - Дубляж со вставками многоголосого
Аудио #02: Русский, Dolby AC3, 48000 Hz, 2ch, 192 kbps - Многоголосый, РТР/СТС
Аудио #03: Русский, Dolby AC3, 48000 Hz, 6ch, 448 kbps - Двухголосый, Пирамида
Аудио #04: Русский, Dolby AC3, 48000 Hz, 6ch, 448 kbps - Двухголосый, Союз Видео
Аудио #05: Русский, Dolby AC3, 48000 Hz, 6ch, 448 kbps - Одноголосый, Гаврилов
Аудио #06: Русский, Dolby AC3, 48000 Hz, 6ch, 448 kbps - Одноголосый, Яроцкий
Аудио #07: Русский, Dolby AC3, 48000 Hz, 2ch, 192 kbps - Одноголосый, Сербин
Аудио #08: Русский, Dolby AC3, 48000 Hz, 6ch, 448 kbps - Одноголосый
Аудио #09: Французский, Dolby AC3, 48000 Hz, 6ch, 448 kbps
Формат субтитров: Softsub (SRT)

Сэмпл

General
Unique ID : 184570852242394427782520145942223442090 (0x8ADB0D993CD22F33BC72567C47EED0AA)
Complete name : D:Torrent2Такси 1-41998 Такси.mkv
Format : Matroska
Format version : Version 4 / Version 2
File size : 9.11 GiB
Duration : 1 h 29 min
Overall bit rate : 14.5 Mb/s
Movie name : 1998 Такси/likko
Encoded date : UTC 2018-04-26 22:18:12
Writing application : mkvmerge v8.3.0 ('Over the Horizon') 64bit
Writing library : libebml v1.3.1 + libmatroska v1.4.2

Video
ID : 1
Format : AVC
Format/Info : Advanced Video Codec
Format profile : High@L4.1
Format settings : CABAC / 5 Ref Frames
Format settings, CABAC : Yes
Format settings, RefFrames : 5 frames
Codec ID : V_MPEG4/ISO/AVC
Duration : 1 h 29 min
Bit rate : 11.0 Mb/s
Width : 1 920 pixels
Height : 816 pixels
Display aspect ratio : 2.35:1
Frame rate mode : Constant
Frame rate : 23.976 (24000/1001) FPS
Color space : YUV
Chroma subsampling : 4:2:0
Bit depth : 8 bits
Scan type : Progressive
Bits/(Pixel*Frame) : 0.293
Stream size : 6.90 GiB (76%)
Title : 1998 Такси
Writing library : x264 core 146 r2538 121396c
Encoding settings : cabac=1 / ref=5 / deblock=1:-1:-1 / analyse=0x3:0x133 / me=umh / subme=11 / psy=1 / psy_rd=1.00:0.15 / mixed_ref=1 / me_range=48 / chroma_me=1 / trellis=2 / 8x8dct=1 / cqm=0 / deadzone=21,11 / fast_pskip=0 / chroma_qp_offset=-3 / threads=18 / lookahead_threads=4 / sliced_threads=0 / nr=0 / decimate=1 / interlaced=0 / bluray_compat=0 / constrained_intra=0 / bframes=12 / b_pyramid=2 / b_adapt=2 / b_bias=0 / direct=3 / weightb=1 / open_gop=0 / weightp=2 / keyint=250 / keyint_min=23 / scenecut=40 / intra_refresh=0 / rc=2pass / mbtree=0 / bitrate=11000 / ratetol=1.0 / qcomp=0.60 / qpmin=0 / qpmax=69 / qpstep=4 / cplxblur=20.0 / qblur=0.5 / ip_ratio=1.40 / pb_ratio=1.30 / aq=2:1.00
Language : French
Default : Yes
Forced : No

Audio #1
ID : 2
Format : AC-3
Format/Info : Audio Coding 3
Format settings, Endianness : Big
Codec ID : A_AC3
Duration : 1 h 29 min
Bit rate mode : Constant
Bit rate : 448 kb/s
Channel(s) : 6 channels
Channel positions : Front: L C R, Side: L R, LFE
Sampling rate : 48.0 kHz
Frame rate : 31.250 FPS (1536 SPF)
Bit depth : 16 bits
Compression mode : Lossy
Stream size : 288 MiB (3%)
Title : Дубляж со вставками многоголосого
Language : Russian
Service kind : Complete Main
Default : Yes
Forced : No

Audio #2
ID : 3
Format : AC-3
Format/Info : Audio Coding 3
Format settings, Endianness : Big
Codec ID : A_AC3
Duration : 1 h 29 min
Bit rate mode : Constant
Bit rate : 192 kb/s
Channel(s) : 2 channels
Channel positions : Front: L R
Sampling rate : 48.0 kHz
Frame rate : 31.250 FPS (1536 SPF)
Bit depth : 16 bits
Compression mode : Lossy
Stream size : 123 MiB (1%)
Title : Многоголосый, РТР/СТС
Language : Russian
Service kind : Complete Main
Default : No
Forced : No

Audio #3
ID : 4
Format : AC-3
Format/Info : Audio Coding 3
Format settings, Endianness : Big
Codec ID : A_AC3
Duration : 1 h 29 min
Bit rate mode : Constant
Bit rate : 448 kb/s
Channel(s) : 6 channels
Channel positions : Front: L C R, Side: L R, LFE
Sampling rate : 48.0 kHz
Frame rate : 31.250 FPS (1536 SPF)
Bit depth : 16 bits
Compression mode : Lossy
Stream size : 288 MiB (3%)
Title : Двухголосый, Пирамида
Language : Russian
Service kind : Complete Main
Default : No
Forced : No

Audio #4
ID : 5
Format : AC-3
Format/Info : Audio Coding 3
Format settings, Endianness : Big
Codec ID : A_AC3
Duration : 1 h 29 min
Bit rate mode : Constant
Bit rate : 448 kb/s
Channel(s) : 6 channels
Channel positions : Front: L C R, Side: L R, LFE
Sampling rate : 48.0 kHz
Frame rate : 31.250 FPS (1536 SPF)
Bit depth : 16 bits
Compression mode : Lossy
Stream size : 286 MiB (3%)
Title : Двухголосый, Союз Видео
Language : Russian
Service kind : Complete Main
Default : No
Forced : No

Audio #5
ID : 6
Format : AC-3
Format/Info : Audio Coding 3
Format settings, Endianness : Big
Codec ID : A_AC3
Duration : 1 h 29 min
Bit rate mode : Constant
Bit rate : 448 kb/s
Channel(s) : 6 channels
Channel positions : Front: L C R, Side: L R, LFE
Sampling rate : 48.0 kHz
Frame rate : 31.250 FPS (1536 SPF)
Bit depth : 16 bits
Compression mode : Lossy
Stream size : 288 MiB (3%)
Title : Одноголосый, Гаврилов
Language : Russian
Service kind : Complete Main
Default : No
Forced : No

Audio #6
ID : 7
Format : AC-3
Format/Info : Audio Coding 3
Format settings, Endianness : Big
Codec ID : A_AC3
Duration : 1 h 29 min
Bit rate mode : Constant
Bit rate : 448 kb/s
Channel(s) : 6 channels
Channel positions : Front: L C R, Side: L R, LFE
Sampling rate : 48.0 kHz
Frame rate : 31.250 FPS (1536 SPF)
Bit depth : 16 bits
Compression mode : Lossy
Stream size : 288 MiB (3%)
Title : Одноголосый, Яроцкий
Language : Russian
Service kind : Complete Main
Default : No
Forced : No

Audio #7
ID : 8
Format : AC-3
Format/Info : Audio Coding 3
Mode : Dolby Digital
Format settings, Endianness : Big
Codec ID : A_AC3
Duration : 1 h 29 min
Bit rate mode : Constant
Bit rate : 192 kb/s
Channel(s) : 2 channels
Channel positions : Front: L R
Sampling rate : 48.0 kHz
Frame rate : 31.250 FPS (1536 SPF)
Bit depth : 16 bits
Compression mode : Lossy
Stream size : 123 MiB (1%)
Title : Одноголосый, Сербин
Language : Russian
Service kind : Complete Main
Default : No
Forced : No

Audio #8
ID : 9
Format : AC-3
Format/Info : Audio Coding 3
Format settings, Endianness : Big
Codec ID : A_AC3
Duration : 1 h 29 min
Bit rate mode : Constant
Bit rate : 448 kb/s
Channel(s) : 6 channels
Channel positions : Front: L C R, Side: L R, LFE
Sampling rate : 48.0 kHz
Frame rate : 31.250 FPS (1536 SPF)
Bit depth : 16 bits
Compression mode : Lossy
Stream size : 288 MiB (3%)
Title : Одноголосый
Language : Russian
Service kind : Complete Main
Default : No
Forced : No

Audio #9
ID : 10
Format : AC-3
Format/Info : Audio Coding 3
Format settings, Endianness : Big
Codec ID : A_AC3
Duration : 1 h 29 min
Bit rate mode : Constant
Bit rate : 448 kb/s
Channel(s) : 6 channels
Channel positions : Front: L C R, Side: L R, LFE
Sampling rate : 48.0 kHz
Frame rate : 31.250 FPS (1536 SPF)
Bit depth : 16 bits
Compression mode : Lossy
Stream size : 288 MiB (3%)
Language : French
Service kind : Complete Main
Default : No
Forced : No

Text #1
ID : 11
Format : UTF-8
Codec ID : S_TEXT/UTF8
Codec ID/Info : UTF-8 Plain Text
Duration : 1 h 24 min
Bit rate : 125 b/s
Count of elements : 925
Stream size : 78.2 KiB (0%)
Language : Russian
Default : No
Forced : No

Text #2
ID : 12
Format : UTF-8
Codec ID : S_TEXT/UTF8
Codec ID/Info : UTF-8 Plain Text
Duration : 1 h 27 min
Bit rate : 52 b/s
Count of elements : 1142
Stream size : 33.7 KiB (0%)
Language : English
Default : No
Forced : No

Menu
00:00:00.000 : fr:00:00:00.000
00:07:14.559 : fr:00:07:14.559
00:13:02.364 : fr:00:13:02.364
00:17:40.768 : fr:00:17:40.768
00:21:46.013 : fr:00:21:46.013
00:28:42.887 : fr:00:28:42.887
00:34:32.779 : fr:00:34:32.779
00:38:56.333 : fr:00:38:56.333
00:47:43.569 : fr:00:47:43.569
00:53:46.348 : fr:00:53:46.348
00:58:44.479 : fr:00:58:44.479
01:04:58.561 : fr:01:04:58.561
01:09:08.769 : fr:01:09:08.769
01:11:46.093 : fr:01:11:46.093
01:21:48.278 : fr:01:21:48.278
01:25:22.617 : fr:01:25:22.617

#777
Год выпуска: 2000
Страна: Франция
Жанр: Боевик, комедия
Продолжительность: 01:28:25
Перевод: Профессиональный (полное дублирование)
Перевод: Авторский (одноголосый закадровый) Гаврилов
Перевод: Авторский (одноголосый закадровый) Гранкин
Перевод: Авторский (одноголосый закадровый) Визгунов
Субтитры: Русские, английские
Режиссер: Жерар Кравчик
В ролях: Сами Насери, Фредерик Дифенталь, Марион Котийяр, Эмма Сьоберг, Бернар Фарси, Жан-Кристоф Буве, Фредерик Тирмон, Эдуард Монтут, Марк Фор, Хирата Харухико

О фильме: Во Францию прибывает министр обороны Японии. Цель его визита - ознакомиться с французским опытом борьбы с терроризмом и подписать «контракт века» о взаимном сотрудничестве.
Неожиданно во время показательных выступлений французской полиции министра обороны похищает гангстерская группировка «Якудза», желающая сорвать заключение наиважнейшего контракта. Даниэль и Эмильен отправляются на поиски высокого гостя. В дело вступает уже хорошо знакомое нам такси.



Качество: BDRip 1080p
Формат: MKV
Видео: MPEG4 Video (H264), 1920x816, 24fps, 11.0 Mbps
Аудио #01: Русский, Dolby AC3, 48000 Hz, 6ch, 448 kbps - Дубляж
Аудио #02: Русский, Dolby AC3, 48000 Hz, 6ch, 448 kbps - Одноголосый, Гаврилов
Аудио #03: Русский, Dolby AC3, 48000 Hz, 2ch, 256 kbps - Одноголосый, Гранкин
Аудио #04: Русский, Dolby AC3, 48000 Hz, 2ch, 192 kbps - Одноголосый, Визгунов
Аудио #05: Французский: Dolby AC3, 48000 Hz, 6ch, 448 kbps
Формат субтитров: Softsub (SRT)

Сэмпл

General
Unique ID : 182200458363861293888443319095092191353 (0x8912882843FD3319B8A58ADCA61E2079)
Complete name : D:Torrent2Такси 1-42000 Такси 2.mkv
Format : Matroska
Format version : Version 4 / Version 2
File size : 7.89 GiB
Duration : 1 h 28 min
Overall bit rate : 12.8 Mb/s
Movie name : 2000 Такси 2/likko
Encoded date : UTC 2018-04-28 18:17:27
Writing application : mkvmerge v8.3.0 ('Over the Horizon') 64bit
Writing library : libebml v1.3.1 + libmatroska v1.4.2

Video
ID : 1
Format : AVC
Format/Info : Advanced Video Codec
Format profile : High@L4.1
Format settings : CABAC / 5 Ref Frames
Format settings, CABAC : Yes
Format settings, RefFrames : 5 frames
Codec ID : V_MPEG4/ISO/AVC
Duration : 1 h 28 min
Bit rate : 11.0 Mb/s
Width : 1 920 pixels
Height : 816 pixels
Display aspect ratio : 2.35:1
Frame rate mode : Constant
Frame rate : 24.000 FPS
Color space : YUV
Chroma subsampling : 4:2:0
Bit depth : 8 bits
Scan type : Progressive
Bits/(Pixel*Frame) : 0.293
Stream size : 6.79 GiB (86%)
Title : 2000 Такси 2
Writing library : x264 core 146 r2538 121396c
Encoding settings : cabac=1 / ref=5 / deblock=1:-1:-1 / analyse=0x3:0x133 / me=umh / subme=11 / psy=1 / psy_rd=1.00:0.15 / mixed_ref=1 / me_range=48 / chroma_me=1 / trellis=2 / 8x8dct=1 / cqm=0 / deadzone=21,11 / fast_pskip=0 / chroma_qp_offset=-3 / threads=18 / lookahead_threads=4 / sliced_threads=0 / nr=0 / decimate=1 / interlaced=0 / bluray_compat=0 / constrained_intra=0 / bframes=10 / b_pyramid=2 / b_adapt=2 / b_bias=0 / direct=3 / weightb=1 / open_gop=0 / weightp=2 / keyint=250 / keyint_min=23 / scenecut=40 / intra_refresh=0 / rc=2pass / mbtree=0 / bitrate=11000 / ratetol=1.0 / qcomp=0.60 / qpmin=0 / qpmax=69 / qpstep=4 / cplxblur=20.0 / qblur=0.5 / ip_ratio=1.40 / pb_ratio=1.30 / aq=2:1.00
Language : French
Default : Yes
Forced : No

Audio #1
ID : 2
Format : AC-3
Format/Info : Audio Coding 3
Format settings, Endianness : Big
Codec ID : A_AC3
Duration : 1 h 28 min
Bit rate mode : Constant
Bit rate : 448 kb/s
Channel(s) : 6 channels
Channel positions : Front: L C R, Side: L R, LFE
Sampling rate : 48.0 kHz
Frame rate : 31.250 FPS (1536 SPF)
Bit depth : 16 bits
Compression mode : Lossy
Stream size : 283 MiB (4%)
Title : Дубляж
Language : Russian
Service kind : Complete Main
Default : Yes
Forced : No

Audio #2
ID : 3
Format : AC-3
Format/Info : Audio Coding 3
Format settings, Endianness : Big
Codec ID : A_AC3
Duration : 1 h 28 min
Bit rate mode : Constant
Bit rate : 448 kb/s
Channel(s) : 6 channels
Channel positions : Front: L C R, Side: L R, LFE
Sampling rate : 48.0 kHz
Frame rate : 31.250 FPS (1536 SPF)
Bit depth : 16 bits
Compression mode : Lossy
Stream size : 283 MiB (4%)
Title : Одноголосый, Гаврилов
Language : Russian
Service kind : Complete Main
Default : No
Forced : No

Audio #3
ID : 4
Format : AC-3
Format/Info : Audio Coding 3
Format settings, Endianness : Big
Codec ID : A_AC3
Duration : 1 h 28 min
Bit rate mode : Constant
Bit rate : 256 kb/s
Channel(s) : 2 channels
Channel positions : Front: L R
Sampling rate : 48.0 kHz
Frame rate : 31.250 FPS (1536 SPF)
Bit depth : 16 bits
Compression mode : Lossy
Stream size : 162 MiB (2%)
Title : Одноголосый, Гранкин
Language : Russian
Service kind : Complete Main
Default : No
Forced : No

Audio #4
ID : 5
Format : AC-3
Format/Info : Audio Coding 3
Format settings, Endianness : Big
Codec ID : A_AC3
Duration : 1 h 28 min
Bit rate mode : Constant
Bit rate : 192 kb/s
Channel(s) : 2 channels
Channel positions : Front: L R
Sampling rate : 48.0 kHz
Frame rate : 31.250 FPS (1536 SPF)
Bit depth : 16 bits
Compression mode : Lossy
Stream size : 121 MiB (2%)
Title : Одноголосый, Визгунов
Language : Russian
Service kind : Complete Main
Default : No
Forced : No

Audio #5
ID : 6
Format : AC-3
Format/Info : Audio Coding 3
Format settings, Endianness : Big
Codec ID : A_AC3
Duration : 1 h 28 min
Bit rate mode : Constant
Bit rate : 448 kb/s
Channel(s) : 6 channels
Channel positions : Front: L C R, Side: L R, LFE
Sampling rate : 48.0 kHz
Frame rate : 31.250 FPS (1536 SPF)
Bit depth : 16 bits
Compression mode : Lossy
Stream size : 283 MiB (4%)
Language : French
Service kind : Complete Main
Default : No
Forced : No

Text #1
ID : 7
Format : UTF-8
Codec ID : S_TEXT/UTF8
Codec ID/Info : UTF-8 Plain Text
Duration : 1 h 22 min
Bit rate : 106 b/s
Count of elements : 893
Stream size : 64.2 KiB (0%)
Language : Russian
Default : No
Forced : No

Text #2
ID : 8
Format : UTF-8
Codec ID : S_TEXT/UTF8
Codec ID/Info : UTF-8 Plain Text
Duration : 1 h 21 min
Bit rate : 63 b/s
Count of elements : 997
Stream size : 38.0 KiB (0%)
Language : English
Default : No
Forced : No

Menu
00:00:00.000 : en:Chapter 01
00:07:29.750 : en:Chapter 02
00:14:43.500 : en:Chapter 03
00:23:18.416 : en:Chapter 04
00:31:25.333 : en:Chapter 05
00:39:41.000 : en:Chapter 06
00:46:52.416 : en:Chapter 07
00:54:17.083 : en:Chapter 08
01:01:14.125 : en:Chapter 09
01:08:10.333 : en:Chapter 10
01:15:46.083 : en:Chapter 11
01:23:34.125 : en:Chapter 12

#777
Год выпуска: 2003
Страна: Франция
Жанр: Боевик, комедия
Продолжительность: 01:27:24
Перевод: Профессиональный (полное дублирование)
Перевод: Профессиональный (многоголосый, закадровый) Карусель
Перевод: Профессиональный (двухголосый, закадровый) Студия Инис - СТС/ТНТ
Перевод: Авторский одноголосый А.Гаврилов
Субтитры: Русские, английские
Режиссер: Жерар Кравчик
В ролях: Сами Насери, Фредерик Дифенталь, Бернар Фарси, Бай Лин, Эмма Сьоберг, Марион Котийяр, Эдуард Монтут, Жан-Кристоф Буве, Леон-Пьер Мондини, Бернард Льопис

О фильме: Банда Санта-Клаусов терроризирует Марсель в канун Рождества, обещая обчистить город до основания. Комиссар полиции уже задумал провести крупномасштабную операцию под кодовым названием «Снеговик», в который главная роль отведена таксисту Даниелю и полицейскому Эмильену.
Но как бы наши друзья не натворили куда больший вред, чем сами преступники, ведь чтобы поймать «мафию Дедов Морозов» друзья вытворяют на своем такси такое!



Качество: BDRip 1080p
Формат: MKV
Видео: MPEG4 Video (H264), 1920x816, 24fps, 11.0 Mbps
Аудио #01: Русский, Dolby AC3, 48000 Hz, 6ch, 448 kbps - Дубляж
Аудио #02: Русский, Dolby AC3, 48000 Hz, 6ch, 448 kbps - Многоголосый, Карусель
Аудио #03: Русский, Dolby AC3, 48000 Hz, 2ch, 192 kbps - Двухголосый, Студия Инис
Аудио #04: Русский, Dolby AC3, 48000 Hz, 6ch, 448 kbps - Одноголосый, Гаврилов
Аудио #05: Французский: Dolby AC3, 48000 Hz, 6ch, 448 kbps
Формат субтитров: Softsub (SRT)

Сэмпл

General
Unique ID : 255071004558151472925884026264573342052 (0xBFE4E378D26FD97B8C4B0A7522567164)
Complete name : D:Torrent2Такси 1-42003 Такси 3.mkv
Format : Matroska
Format version : Version 4 / Version 2
File size : 7.92 GiB
Duration : 1 h 27 min
Overall bit rate : 13.0 Mb/s
Movie name : 2003 Такси 3/likko
Encoded date : UTC 2018-04-28 23:16:22
Writing application : mkvmerge v8.3.0 ('Over the Horizon') 64bit
Writing library : libebml v1.3.1 + libmatroska v1.4.2

Video
ID : 1
Format : AVC
Format/Info : Advanced Video Codec
Format profile : High@L4.1
Format settings : CABAC / 5 Ref Frames
Format settings, CABAC : Yes
Format settings, RefFrames : 5 frames
Codec ID : V_MPEG4/ISO/AVC
Duration : 1 h 27 min
Bit rate : 11.0 Mb/s
Width : 1 920 pixels
Height : 816 pixels
Display aspect ratio : 2.35:1
Frame rate mode : Constant
Frame rate : 24.000 FPS
Color space : YUV
Chroma subsampling : 4:2:0
Bit depth : 8 bits
Scan type : Progressive
Bits/(Pixel*Frame) : 0.293
Stream size : 6.71 GiB (85%)
Title : 2003 Такси 3
Writing library : x264 core 146 r2538 121396c
Encoding settings : cabac=1 / ref=5 / deblock=1:-1:-1 / analyse=0x3:0x133 / me=umh / subme=11 / psy=1 / psy_rd=1.00:0.15 / mixed_ref=1 / me_range=48 / chroma_me=1 / trellis=2 / 8x8dct=1 / cqm=0 / deadzone=21,11 / fast_pskip=0 / chroma_qp_offset=-3 / threads=18 / lookahead_threads=4 / sliced_threads=0 / nr=0 / decimate=1 / interlaced=0 / bluray_compat=0 / constrained_intra=0 / bframes=12 / b_pyramid=2 / b_adapt=2 / b_bias=0 / direct=3 / weightb=1 / open_gop=0 / weightp=2 / keyint=250 / keyint_min=23 / scenecut=40 / intra_refresh=0 / rc=2pass / mbtree=0 / bitrate=11000 / ratetol=1.0 / qcomp=0.60 / qpmin=0 / qpmax=69 / qpstep=4 / cplxblur=20.0 / qblur=0.5 / ip_ratio=1.40 / pb_ratio=1.30 / aq=2:1.00
Language : French
Default : Yes
Forced : No

Audio #1
ID : 2
Format : AC-3
Format/Info : Audio Coding 3
Format settings, Endianness : Big
Codec ID : A_AC3
Duration : 1 h 27 min
Bit rate mode : Constant
Bit rate : 448 kb/s
Channel(s) : 6 channels
Channel positions : Front: L C R, Side: L R, LFE
Sampling rate : 48.0 kHz
Frame rate : 31.250 FPS (1536 SPF)
Bit depth : 16 bits
Compression mode : Lossy
Stream size : 280 MiB (3%)
Title : Дубляж
Language : Russian
Service kind : Complete Main
Default : Yes
Forced : No

Audio #2
ID : 3
Format : AC-3
Format/Info : Audio Coding 3
Format settings, Endianness : Big
Codec ID : A_AC3
Duration : 1 h 27 min
Bit rate mode : Constant
Bit rate : 448 kb/s
Channel(s) : 6 channels
Channel positions : Front: L C R, Side: L R, LFE
Sampling rate : 48.0 kHz
Frame rate : 31.250 FPS (1536 SPF)
Bit depth : 16 bits
Compression mode : Lossy
Stream size : 280 MiB (3%)
Title : Многоголосый, Карусель
Language : Russian
Service kind : Complete Main
Default : No
Forced : No

Audio #3
ID : 4
Format : AC-3
Format/Info : Audio Coding 3
Format settings, Endianness : Big
Codec ID : A_AC3
Duration : 1 h 27 min
Bit rate mode : Constant
Bit rate : 192 kb/s
Channel(s) : 2 channels
Channel positions : Front: L R
Sampling rate : 48.0 kHz
Frame rate : 31.250 FPS (1536 SPF)
Bit depth : 16 bits
Compression mode : Lossy
Stream size : 120 MiB (1%)
Title : Двухголосый, Студия Инис - СТС/ТНТ
Language : Russian
Service kind : Complete Main
Default : No
Forced : No

Audio #4
ID : 5
Format : AC-3
Format/Info : Audio Coding 3
Format settings, Endianness : Big
Codec ID : A_AC3
Duration : 1 h 27 min
Bit rate mode : Constant
Bit rate : 448 kb/s
Channel(s) : 6 channels
Channel positions : Front: L C R, Side: L R, LFE
Sampling rate : 48.0 kHz
Frame rate : 31.250 FPS (1536 SPF)
Bit depth : 16 bits
Compression mode : Lossy
Stream size : 280 MiB (3%)
Title : Одноголосый, Гаврилов
Language : Russian
Service kind : Complete Main
Default : No
Forced : No

Audio #5
ID : 6
Format : AC-3
Format/Info : Audio Coding 3
Format settings, Endianness : Big
Codec ID : A_AC3
Duration : 1 h 27 min
Bit rate mode : Constant
Bit rate : 448 kb/s
Channel(s) : 6 channels
Channel positions : Front: L C R, Side: L R, LFE
Sampling rate : 48.0 kHz
Frame rate : 31.250 FPS (1536 SPF)
Bit depth : 16 bits
Compression mode : Lossy
Stream size : 280 MiB (3%)
Language : French
Service kind : Complete Main
Default : No
Forced : No

Text #1
ID : 7
Format : UTF-8
Codec ID : S_TEXT/UTF8
Codec ID/Info : UTF-8 Plain Text
Duration : 1 h 21 min
Bit rate : 115 b/s
Count of elements : 1356
Stream size : 69.0 KiB (0%)
Language : Russian
Default : No
Forced : No

Text #2
ID : 8
Format : UTF-8
Codec ID : S_TEXT/UTF8
Codec ID/Info : UTF-8 Plain Text
Duration : 1 h 18 min
Bit rate : 78 b/s
Count of elements : 1159
Stream size : 45.3 KiB (0%)
Language : English
Default : No
Forced : No

Menu
00:00:00.000 : en:Chapter 01
00:08:29.833 : en:Chapter 02
00:15:59.833 : en:Chapter 03
00:23:21.000 : en:Chapter 04
00:30:43.333 : en:Chapter 05
00:39:43.166 : en:Chapter 06
00:47:47.500 : en:Chapter 07
00:55:08.916 : en:Chapter 08
01:03:00.666 : en:Chapter 09
01:10:09.291 : en:Chapter 10
01:17:52.125 : en:Chapter 11
01:21:35.708 : en:Chapter 12
01:27:15.708 : en:Chapter 13

#777
Год выпуска: 2007
Выпущено: Франция
Жанр: Боевик, комедия
Продолжительность: 01:37:26
Перевод: Профессиональный (полное дублирование) + А. Лагута на непереведённые эпизоды
Перевод: Профессиональный (полное дублирование) + Субтитры на непереведённые эпизоды
Перевод: Профессиональный (двухголосый, закадровый) П.Гланц и И.Королева
Субтитры: Русские (форсированные на дубляж), русские (форсированные на двухголосый перевод), русские (полные), английские
Режиссер: Жерар Кравчик
В ролях: Сами Насери, Фредерик Дифенталь, Бернар Фарси, Эмма Сьоберг, Эдуард Монтаут, Жан-Кристоф Буве, Жан-Люк Кучар, Франсуа Дамиенс, Морад Зегвенди, Дрисс Спиноза

О фильме: Преступника N1 транспортируют из Бельгии в Конго. .. через Марсель. Всего несколько часов самый опасный человек в мире, надежно упакованный в скафандр и железную клетку, должен пробыть в полицейском участке комиссара Жибера.
Но стеречь преступника доверили Эмильену… Петра внедрится в банду и очарует злодея, Жибер задаст жару бандитам и покажет, как настоящие французы играют в футбол. И, конечно, полицейским Марселя опять не обойтись без помощи Даниеля и его реактивного такси.



Качество: BDRip 1080p
Формат: MKV
Видео: MPEG4 Video (H264), 1920x816, 23.976fps, 10000 kbps
Аудио #01: Русский, Dolby AC3, 48000 Hz, 6ch, 448 kbps - Дубляж + А. Лагута
Аудио #02: Русский, Dolby AC3, 48000 Hz, 6ch, 448 kbps - Дубляж
Аудио #03: Русский, Dolby AC3, 48000 Hz, 6ch, 448 kbps - Двухголосый, Гланц и Королёва
Аудио #04: Французский: Dolby AC3, 48000 Hz, 6ch 448 kbps
Формат субтитров: Softsub (SRT)

Сэмпл

General
Unique ID : 196465698569408672745084810700820999931 (0x93CDEACD17EDF57895799F51559A6EFB)
Complete name : D:Torrent2Такси 1-42007 Такси 4.mkv
Format : Matroska
Format version : Version 4 / Version 2
File size : 8.02 GiB
Duration : 1 h 37 min
Overall bit rate : 11.8 Mb/s
Movie name : 2007 Такси 4/likko
Encoded date : UTC 2018-04-28 20:34:43
Writing application : mkvmerge v8.3.0 ('Over the Horizon') 64bit
Writing library : libebml v1.3.1 + libmatroska v1.4.2

Video
ID : 1
Format : AVC
Format/Info : Advanced Video Codec
Format profile : High@L4.1
Format settings : CABAC / 5 Ref Frames
Format settings, CABAC : Yes
Format settings, RefFrames : 5 frames
Codec ID : V_MPEG4/ISO/AVC
Duration : 1 h 37 min
Bit rate : 10 000 kb/s
Width : 1 920 pixels
Height : 816 pixels
Display aspect ratio : 2.35:1
Frame rate mode : Constant
Frame rate : 23.976 (24000/1001) FPS
Color space : YUV
Chroma subsampling : 4:2:0
Bit depth : 8 bits
Scan type : Progressive
Bits/(Pixel*Frame) : 0.266
Stream size : 6.80 GiB (85%)
Title : 2007 Такси 4
Writing library : x264 core 146 r2538 121396c
Encoding settings : cabac=1 / ref=5 / deblock=1:-1:-1 / analyse=0x3:0x133 / me=umh / subme=11 / psy=1 / psy_rd=1.00:0.15 / mixed_ref=1 / me_range=48 / chroma_me=1 / trellis=2 / 8x8dct=1 / cqm=0 / deadzone=21,11 / fast_pskip=0 / chroma_qp_offset=-3 / threads=18 / lookahead_threads=4 / sliced_threads=0 / nr=0 / decimate=1 / interlaced=0 / bluray_compat=0 / constrained_intra=0 / bframes=10 / b_pyramid=2 / b_adapt=2 / b_bias=0 / direct=3 / weightb=1 / open_gop=0 / weightp=2 / keyint=250 / keyint_min=23 / scenecut=40 / intra_refresh=0 / rc=2pass / mbtree=0 / bitrate=10000 / ratetol=1.0 / qcomp=0.60 / qpmin=0 / qpmax=69 / qpstep=4 / cplxblur=20.0 / qblur=0.5 / ip_ratio=1.40 / pb_ratio=1.30 / aq=2:1.00
Language : French
Default : Yes
Forced : No

Audio #1
ID : 2
Format : AC-3
Format/Info : Audio Coding 3
Format settings, Endianness : Big
Codec ID : A_AC3
Duration : 1 h 37 min
Bit rate mode : Constant
Bit rate : 448 kb/s
Channel(s) : 6 channels
Channel positions : Front: L C R, Side: L R, LFE
Sampling rate : 48.0 kHz
Frame rate : 31.250 FPS (1536 SPF)
Bit depth : 16 bits
Compression mode : Lossy
Stream size : 312 MiB (4%)
Title : Дубляж + А. Лагута
Language : Russian
Service kind : Complete Main
Default : Yes
Forced : No

Audio #2
ID : 3
Format : AC-3
Format/Info : Audio Coding 3
Format settings, Endianness : Big
Codec ID : A_AC3
Duration : 1 h 37 min
Bit rate mode : Constant
Bit rate : 448 kb/s
Channel(s) : 6 channels
Channel positions : Front: L C R, Side: L R, LFE
Sampling rate : 48.0 kHz
Frame rate : 31.250 FPS (1536 SPF)
Bit depth : 16 bits
Compression mode : Lossy
Stream size : 312 MiB (4%)
Title : Дубляж
Language : Russian
Service kind : Complete Main
Default : No
Forced : No

Audio #3
ID : 4
Format : AC-3
Format/Info : Audio Coding 3
Format settings, Endianness : Big
Codec ID : A_AC3
Duration : 1 h 37 min
Bit rate mode : Constant
Bit rate : 448 kb/s
Channel(s) : 6 channels
Channel positions : Front: L C R, Side: L R, LFE
Sampling rate : 48.0 kHz
Frame rate : 31.250 FPS (1536 SPF)
Bit depth : 16 bits
Compression mode : Lossy
Stream size : 312 MiB (4%)
Title : Двухголосый, Гланц и Королёва
Language : Russian
Service kind : Complete Main
Default : No
Forced : No

Audio #4
ID : 5
Format : AC-3
Format/Info : Audio Coding 3
Format settings, Endianness : Big
Codec ID : A_AC3
Duration : 1 h 37 min
Bit rate mode : Constant
Bit rate : 448 kb/s
Channel(s) : 6 channels
Channel positions : Front: L C R, Side: L R, LFE
Sampling rate : 48.0 kHz
Frame rate : 31.250 FPS (1536 SPF)
Bit depth : 16 bits
Compression mode : Lossy
Stream size : 312 MiB (4%)
Language : French
Service kind : Complete Main
Default : No
Forced : No

Text #1
ID : 6
Format : UTF-8
Codec ID : S_TEXT/UTF8
Codec ID/Info : UTF-8 Plain Text
Duration : 1 h 28 min
Bit rate : 4 b/s
Count of elements : 51
Stream size : 3.08 KiB (0%)
Title : Форсированные для дубляжа
Language : Russian
Default : No
Forced : No

Text #2
ID : 7
Format : UTF-8
Codec ID : S_TEXT/UTF8
Codec ID/Info : UTF-8 Plain Text
Duration : 1 h 28 min
Bit rate : 7 b/s
Count of elements : 76
Stream size : 4.90 KiB (0%)
Title : Форсированные для двухголосого перевода
Language : Russian
Default : No
Forced : No

Text #3
ID : 8
Format : UTF-8
Codec ID : S_TEXT/UTF8
Codec ID/Info : UTF-8 Plain Text
Duration : 1 h 31 min
Bit rate : 143 b/s
Count of elements : 1478
Stream size : 95.5 KiB (0%)
Title : Full
Language : Russian
Default : No
Forced : No

Text #4
ID : 9
Format : UTF-8
Codec ID : S_TEXT/UTF8
Codec ID/Info : UTF-8 Plain Text
Duration : 1 h 30 min
Bit rate : 59 b/s
Count of elements : 1437
Stream size : 39.5 KiB (0%)
Language : English
Default : No
Forced : No

Menu
00:00:00.000 : en:Chapter 01
00:04:59.799 : en:Chapter 02
00:09:59.932 : en:Chapter 03
00:15:00.107 : en:Chapter 04
00:20:00.032 : en:Chapter 05
00:24:59.789 : en:Chapter 06
00:30:00.215 : en:Chapter 07
00:34:59.931 : en:Chapter 08
00:40:00.523 : en:Chapter 09
00:45:00.531 : en:Chapter 10
00:50:00.497 : en:Chapter 11
00:55:00.547 : en:Chapter 12
01:00:00.054 : en:Chapter 13
01:05:00.271 : en:Chapter 14
01:10:00.446 : en:Chapter 15
01:15:00.078 : en:Chapter 16
01:20:00.587 : en:Chapter 17
01:24:59.677 : en:Chapter 18
01:30:00.019 : en:Chapter 19
01:35:00.569 : en:Chapter 20


Автор релиза: likko
КУБКИ

СТАЖ

МЕДАЛИ
Награды:53

За помощь проекту (7) Лучший по количеству кубков (3) За отличные раздачи и качество (17) За подробное оформление раздач (4) За отличные комментарии (4) Почётный форумчанин (3) Верный Сид (11) За участие в конкурсах/играх (2)

Аватара пользователя
Тортуга
kisa1980
Главный помощник Администратора-Корсар
  • Торрент
Для скачивания торрента необходимо зарегистрироваться или войти на трекер.

Сообщение kwazar312 » 10 авг 2018, 17:57

Перед нами один из бессмертных шедевров мирового кинематографа, ибо качество фильма, в первую очередь, проверяется временем. «Такси» было снято в далеком девяносто восьмом, а многие люди до сих пор, увидев в телевизионной программе заветные пять букв, нет-нет,да переключат на нужный канал. Пусть не сначала, пусть посмотреть всего лишь какой-то кусочек, но все же…В «Такси» все хорошо: работа режиссера, оператора, сценарий, актеры, саундтрек. Идеально. Шутки всегда к месту, и юмор сам по себе очень качественный.Сюжет прост, однако захватывает. Съемки во время погонь просто шикарны, а «такси» со множеством кнопочек и встроенных приборов заставляет завидовать, ибо машина действительно потрясающая.Качественный боевик с элементами комедии в наше время найти не так-то легко, в особенности если ищите юмор качественный и к месту.
Уважаемые likko и kisa1980,большое ВАМ спасибо за фильм.Удачи ВАМ!
КУБКИ

СТАЖ

МЕДАЛИ
Награды:70

За помощь проекту (7) Лучший по количеству кубков (19) За отличные комментарии (11) Верный Сид (27) За участие в конкурсах/играх (6)

Аватара пользователя
kwazar312
Заслуженный Корсар-Вип


Вернуться в Зарубежное кино (Сборники фильмов / HD Video)



Uptime по данным Ping-Admin.Ru - сервиса мониторинга доступности сайтов
Рейтинг@Mail.ru Голосуйте за наш сайт в каталоге Rubo.Ru