Korsar.tv - Скачать торрент - Такси-блюз (1990, Драма, WEB-DLRip 720p) - KORSAR
logo
Международный русскоязычный
торрент-трекер
Menu

Doublon
Поделиться с друзьями: 
Голосуй за Корсар и получи 150 дублонов
Рейтинг торрент трекеров - UpTracker.ru

Такси-блюз (1990, Драма, WEB-DLRip 720p) - KORSAR

Сообщение mister.hats » 12 мар 2018, 23:41

Такси-блюз


Страна: СССР, Франция
Жанр: Драма
Год выпуска: 1990
Продолжительность: 01:45:37
Перевод: Не требуется
Режиссер: Павел Лунгин
В ролях: Петр Мамонов, Петр Зайченко, Наталья Коляканова, Елена Сафонова, Владимир Кашпур, Хол Сингер, Сергей Газаров, Евгений Герчаков, Дмитрий Пригов, Игорь Золотовицкий, Валерий Хлевинский

Описание: Мелодраматическая история о том, как жизнь соединила двоих ни в чем не схожих людей - практичного таксиста и безвольного спившегося музыканта.



Кодек: х264
Качество: WEB DLRip 720p
Видео: MPEG-4 AVC, 1280х720, 25 fps, 6850 Кбит/с
Аудио: АС3, 2h, 192 Кбит/с
Субтитры: французские, английские

Доп: За исходник спасибо george$t




x264 [info]: frame I:865 Avg QP:18.20 size:139755
x264 [info]: frame P:31870 Avg QP:19.97 size: 78460
x264 [info]: frame B:125689 Avg QP:21.37 size: 22320

Общее
Уникальный идентификатор : 203786349009519665876128422401871953213 (0x994FD2BC05778FD2B23CCBE16397BD3D)
Полное имя : H:\Наше современное кино\Такси блюз 1990_WEB DLRip 720p_KORSAR.mkv
Формат : Matroska
Версия формата : Version 2
Размер файла : 5,20 Гбайт
Продолжительность : 1 ч. 45 м.
Общий поток : 7044 Кбит/сек
Дата кодирования : UTC 2018-03-12 20:29:59
Программа кодирования : mkvmerge v5.8.0 ('No Sleep / Pillow') built on Sep 2 2012 15:37:04
Библиотека кодирования : libebml v1.2.3 + libmatroska v1.3.0

Видео
Идентификатор : 1
Формат : AVC
Формат/Информация : Advanced Video Codec
Профиль формата : High@L4.1
Настройки формата : CABAC / 9 Ref Frames
Параметр CABAC формата : Да
Параметр RefFrames формата : 9 кадров
Идентификатор кодека : V_MPEG4/ISO/AVC
Продолжительность : 1 ч. 45 м.
Битрейт : 6850 Кбит/сек
Ширина : 1280 пикселей
Высота : 720 пикселей
Соотношение сторон : 16:9
Режим частоты кадров : Постоянный
Частота кадров : 25,000 кадров/сек
Цветовое пространство : YUV
Субдискретизация насыщенности : 4:2:0
Битовая глубина : 8 бит
Тип развёртки : Прогрессивная
Бит/(Пиксели*Кадры) : 0.297
Размер потока : 4,95 Гбайт (95%)
Библиотека кодирования : x264 core 152 r2851kMod ba24899
Настройки программы : cabac=1 / ref=9 / deblock=1:-2:-2 / analyse=0x3:0x113 / me=umh / subme=11 / psy=1 / fade_compensate=0.00 / psy_rd=1.00:0.05 / mixed_ref=1 / me_range=48 / chroma_me=1 / trellis=2 / 8x8dct=1 / cqm=0 / deadzone=21,11 / fast_pskip=0 / chroma_qp_offset=-3 / threads=12 / lookahead_threads=3 / sliced_threads=0 / nr=0 / decimate=0 / interlaced=0 / bluray_compat=0 / constrained_intra=0 / bframes=10 / b_pyramid=2 / b_adapt=2 / b_bias=0 / direct=3 / weightb=1 / open_gop=0 / weightp=2 / keyint=240 / keyint_min=24 / scenecut=40 / intra_refresh=0 / rc_lookahead=40 / rc=2pass / mbtree=0 / bitrate=6850 / ratetol=1.0 / qcomp=0.60 / qpmin=0 / qpmax=39 / qpstep=4 / cplxblur=20.0 / qblur=0.5 / vbv_maxrate=50000 / vbv_bufsize=62500 / nal_hrd=none / filler=0 / ip_ratio=1.15 / pb_ratio=1.30 / aq=1:1.00
Язык : English
Default : Да
Forced : Нет
Цветовой диапазон : Limited
Основные цвета : BT.709
Характеристики трансфера : BT.709
Коэффициенты матрицы : BT.709

Аудио
Идентификатор : 2
Формат : AC-3
Формат/Информация : Audio Coding 3
Параметр Endianness формата : Big
Идентификатор кодека : A_AC3
Продолжительность : 1 ч. 45 м.
Вид битрейта : Постоянный
Битрейт : 192 Кбит/сек
Каналы : 2 канала
Расположение каналов : Front: L R
Частота : 48,0 КГц
Частота кадров : 31,250 кадров/сек (1536 SPF)
Битовая глубина : 16 бит
Метод сжатия : С потерями
Размер потока : 145 Мбайт (3%)
Заголовок : AC-3; 16 bits 48 Khz; 2.0ch 192 Kbps; CBR
Язык : Russian
Default : Нет
Forced : Нет

Текст #1
Идентификатор : 3
Формат : UTF-8
Идентификатор кодека : S_TEXT/UTF8
Идентификатор кодека/Информация : UTF-8 Plain Text
Заголовок : Субтитры французские
Язык : French
Default : Нет
Forced : Нет

Текст #2
Идентификатор : 4
Формат : UTF-8
Идентификатор кодека : S_TEXT/UTF8
Идентификатор кодека/Информация : UTF-8 Plain Text
Заголовок : Субтитры английские
Язык : English
Default : Нет
Forced : Нет

Сравнение с исходником

Тот кто не с нами, тот против нас
Аватара пользователя
mister.hats
Заслуженный Корсар-Вип
 
 

Награды: 45
За помощь проекту (6) Лучший по количеству кубков (10) За отличные раздачи и качество (19) За подробное оформление раздач (1) За отличные комментарии (1) Верный Сид (8)
Раздачи группы KORSAR разрешено перезаливать спустя сутки после публикации
  • Торрент
Для скачивания торрента необходимо зарегистрироваться или войти на трекер.

Сообщение verybigpapa » 13 мар 2018, 06:08

Уважаеимый mister.hats, большое спасибо. :hi: :respect:
Улыбайтесь, господа! Улыбайтесь!
Аватара пользователя
verybigpapa
Заслуженный Корсар-Вип
 
 

Награды: 35
За помощь проекту (13) Лучший по количеству кубков (9) За отличные комментарии (5) Верный Сид (8)

Сообщение filbi1976 » 13 мар 2018, 06:14

Диман спасибо, заплатки отличные. :-drinks:
Аватара пользователя
filbi1976
Администратор-Корсар
 
 

Награды: 51
За помощь проекту (1) За отличные раздачи и качество (37) Верный Сид (10) За участие в конкурсах/играх (1)


Вернуться в Наше современное кино (HD Video)



Uptime по данным Ping-Admin.Ru - сервиса мониторинга доступности сайтов
Рейтинг@Mail.ru