logo
Международный русскоязычный
торрент-трекер
Menu
Doublon
Поделиться с друзьями: 
Голосуй за Корсар и получи 500 дублонов
Рейтинг торрент трекеров - UpTracker.ru

Так и будет (1979, Драма, Военный, DVDRip-AVC) - KORSAR

Сообщение filbi1976 » 14 янв 2020, 11:57

Так и будет

Год выпуска: 1979
Жанр: Драма, Военный
Продолжительность: 01:05:56 + 01:06:53
Режиссер: Лев Мирский
В ролях: Наталья Варлей, Кирилл Лавров, Валентина Карева, Александр Михайлов, Екатерина Васильева, Андрей Петров, Анатолий Егоров, Леонард Варфоломеев, Георгий Дворников, Гега Кобахидзе, Юрий Козулин, Татьяна Малягина, Марина Аничкова, Е. Герасимова, И. Колмогорова, Н. Курбатова

Описание: Фильм по одноименной пьесе Константина Симонова.
В 1944 году в свою московскую квартиру возвращается инженер-полковник Савельев, у которого в годы войны погибли жена и дети. В его квартире временно проживает академик Воронцов с дочерью Олей, у которой в перестрелке погиб возлюбленный. Оля влюбляется в Савельева, но отношения не завязываются…

Качество: DVDRip-AVC
Формат: MKV
Видео: MPEG-4 AVC, 700x574@746x574, 25 fps, 2154 Кбит/с
Аудио: AC3, 6 ch, 448 Кбит/с, AC3, 2 ch, 224 Кбит/с
Язык: Русский



  • x264 [info]: frame I:1089 Avg QP:17.06 size: 67854
  • x264 [info]: frame P:44254 Avg QP:18.67 size: 28960
  • x264 [info]: frame B:153926 Avg QP:21.42 size: 5495
  • x264 [info]: consecutive B-frames: 1.3% 2.6% 9.6% 21.2% 24.9% 37.2% 2.6% 0.4% 0.1% 0.1%
Общее
Уникальный идентификатор : 177495375336477389523693142337344040763 (0x85885DA75E1CED7E9B95833A0B98EF3B)
Полное имя : D:\Так и будет_1979-DVDRip-AVC_KORSAR.mkv
Формат : Matroska
Версия формата : Version 2
Размер файла : 2,68 Гбайт
Продолжительность : 2 ч. 12 м.
Общий поток : 2883 Кбит/сек
Название фильма : Так и будет_1979-DVDRip-AVC_KORSAR
Дата кодирования : UTC 2020-01-14 08:49:29
Программа кодирования : mkvmerge v5.8.0 ('No Sleep / Pillow') built on Sep 2 2012 15:37:04
Библиотека кодирования : libebml v1.2.3 + libmatroska v1.3.0

Видео
Идентификатор : 1
Формат : AVC
Формат/Информация : Advanced Video Codec
Профиль формата : High@L4.1
Настройки формата : CABAC / 14 Ref Frames
Параметр CABAC формата : Да
Параметр RefFrames формата : 14 кадров
Идентификатор кодека : V_MPEG4/ISO/AVC
Продолжительность : 2 ч. 12 м.
Битрейт : 2154 Кбит/сек
Ширина : 700 пикселей
Высота : 574 пикселя
Соотношение сторон : 4:3
Соотношение сторон в оригинале : 4:3
Режим частоты кадров : Постоянный
Частота кадров : 25,000 кадров/сек
Цветовое пространство : YUV
Субдискретизация насыщенности : 4:2:0
Битовая глубина : 8 бит
Тип развёртки : Прогрессивная
Бит/(Пиксели*Кадры) : 0.214
Размер потока : 2,00 Гбайт (75%)
Библиотека кодирования : x264 core 152 r2851kMod ba24899
Настройки программы : cabac=1 / ref=14 / deblock=1:-2:-1 / analyse=0x3:0x133 / me=umh / subme=10 / psy=1 / fade_compensate=0.00 / psy_rd=1.05:0.10 / mixed_ref=1 / me_range=40 / chroma_me=1 / trellis=2 / 8x8dct=1 / cqm=0 / deadzone=21,11 / fast_pskip=1 / chroma_qp_offset=-3 / threads=18 / lookahead_threads=3 / sliced_threads=0 / nr=0 / decimate=1 / interlaced=0 / bluray_compat=0 / constrained_intra=0 / bframes=9 / b_pyramid=2 / b_adapt=2 / b_bias=0 / direct=1 / weightb=1 / open_gop=0 / weightp=2 / keyint=250 / keyint_min=25 / scenecut=40 / intra_refresh=0 / rc=crf / mbtree=0 / crf=17.0000 / qcomp=0.63 / qpmin=0 / qpmax=33 / qpstep=4 / ip_ratio=1.40 / pb_ratio=1.30 / aq=2:0.90
Язык : English
Default : Да
Forced : Нет
Цветовой диапазон : Limited
Основные цвета : BT.601 PAL
Характеристики трансфера : BT.470 System B/G
Коэффициенты матрицы : BT.470 System B/G

Аудио #1
Идентификатор : 2
Формат : AC-3
Формат/Информация : Audio Coding 3
Коммерческое название : Dolby Digital
Идентификатор кодека : A_AC3
Продолжительность : 2 ч. 12 м.
Вид битрейта : Постоянный
Битрейт : 448 Кбит/сек
Каналы : 6 каналов
ChannelLayout : L R C LFE Ls Rs
Частота : 48,0 КГц
Частота кадров : 31,250 кадров/сек (1536 SPF)
Метод сжатия : С потерями
Задержка видео : 150 мс.
Размер потока : 426 Мбайт (16%)
Язык : Russian
ServiceKind/String : Complete Main
Default : Да
Forced : Нет

Аудио #2
Идентификатор : 3
Формат : AC-3
Формат/Информация : Audio Coding 3
Коммерческое название : Dolby Digital
Идентификатор кодека : A_AC3
Продолжительность : 2 ч. 12 м.
Вид битрейта : Постоянный
Битрейт : 224 Кбит/сек
Каналы : 2 канала
ChannelLayout : L R
Частота : 48,0 КГц
Частота кадров : 31,250 кадров/сек (1536 SPF)
Метод сжатия : С потерями
Задержка видео : 150 мс.
Размер потока : 213 Мбайт (8%)
Язык : Russian
ServiceKind/String : Complete Main
Default : Нет
Forced : Нет

Меню
00:00:00.000 : en:Chapter 1
00:09:05.400 : en:Chapter 2
00:18:06.440 : en:Chapter 3
00:30:33.920 : en:Chapter 4
00:40:11.760 : en:Chapter 5
00:52:18.640 : en:Chapter 6
01:05:53.840 : en:Chapter 7
01:20:08.200 : en:Chapter 8
01:31:09.440 : en:Chapter 9
01:38:06.320 : en:Chapter 10
01:50:14.800 : en:Chapter 11
02:06:58.760 : en:Chapter 12

Просьба отключить блокировщики рекламы на странице скриншотов по адресу: http://3.lostpic.net/, этим Вы поможете существованию проекта. Заранее спасибо!
Посмотреть товар в профиле пользователя

Нажмите на изображение, чтобы увидеть в полный размер  
1 шт.
Нажмите на изображение, чтобы увидеть в полный размер  
1 шт.
Нажмите на изображение, чтобы увидеть в полный размер  
1 шт.
Нажмите на изображение, чтобы увидеть в полный размер  
1 шт.
Нажмите на изображение, чтобы увидеть в полный размер  
1 шт.
Нажмите на изображение, чтобы увидеть в полный размер  
1 шт.
Нажмите на изображение, чтобы увидеть в полный размер  
1 шт.
Нажмите на изображение, чтобы увидеть в полный размер  
1 шт.
Нажмите на изображение, чтобы увидеть в полный размер  
1 шт.
Нажмите на изображение, чтобы увидеть в полный размер  
1 шт.
Нажмите на изображение, чтобы увидеть в полный размер  
1 шт.
Нажмите на изображение, чтобы увидеть в полный размер  
1 шт.
Нажмите на изображение, чтобы увидеть в полный размер  
1 шт.
Нажмите на изображение, чтобы увидеть в полный размер  
1 шт.
Нажмите на изображение, чтобы увидеть в полный размер  
1 шт.
КУБКИ

СТАЖ

МЕДАЛИ
Награды:127

За активную помощь проекту (4) За отличные раздачи и качество (83) За подробное оформление раздач (1) За отличные комментарии (6) Почётный форумчанин (1) Верный Сид (30) За участие в конкурсах/играх (1)

Аватара пользователя
Тортуга
filbi1976
Администратор-Корсар
Раздачи группы KORSAR разрешено перезаливать спустя 7 дней после публикации и с обязательным добавлением банера
  • Торрент
Для скачивания торрента необходимо зарегистрироваться или войти на трекер.

Сообщение Khargor » 14 янв 2020, 13:10

Огромное спасибо, дорогой filbi1976, за выполненный заказ :hi:
КУБКИ

СТАЖ

МЕДАЛИ
Награды:16

За отличные раздачи и качество (1) За отличные комментарии (5) Почётный форумчанин (1) Верный Сид (9)

Аватара пользователя
СССР
Khargor
Уважаемый Корсар

Сообщение kwazar312 » 14 янв 2020, 16:12

Прекрасный фильм, отличная экранизации пьесы Симонова.Вообще, экранизации произведений этого талантливого писателя удались. Это и «Случай ч Полыниным», и «Живые и мёртвые», «Возмездие». Везде снимаются хорошие актёры.
В этом фильме Михайлов, Карева, Лавров отлично играют. Карева прекрасно передает метания героини, которая не хочет бросать работу в Москве и уезжать с любимым человеком в воинскую часть на Дальнем Востоке.Фильм снят в то время, когда профессия «Родину защищать» ещё считалась почётной и престижной, и он эту общественную психологию хорошо отражает.Не показывают по ТВ из-за анти-китайских высказываний героини (Варлей). Фильм снимался после известного конфликта с Китаем из-за островов на Амуре, которые Путин в 2004 продал Китаю.
Уважаемый filbi1976,спасибо за раздачу хорошего советского фильма.
:hi: :good: :respect:
КУБКИ

СТАЖ

МЕДАЛИ
Награды:131

За активную помощь проекту (13) Лучший по количеству кубков (40) За отличные раздачи и качество (3) За отличные комментарии (22) Почётный форумчанин (1) Верный Сид (46) За участие в конкурсах/играх (6)

Аватара пользователя
kwazar312
Заслуженный Корсар-Вип

Сообщение verybigpapa » 14 янв 2020, 18:03

Уважаемый filbi1976, большое спасибо. :hi: :respect:
Улыбайтесь, господа! Улыбайтесь!
КУБКИ

СТАЖ

МЕДАЛИ
Награды:63

За активную помощь проекту (24) Лучший по количеству кубков (9) За отличные раздачи и качество (1) За отличные комментарии (10) Почётный форумчанин (1) Верный Сид (18)

Аватара пользователя
СССР
verybigpapa
Заслуженный Корсар-Вип


Вернуться в Кино времён СССР



cron
Uptime по данным Ping-Admin.Ru - сервиса мониторинга доступности сайтов
Рейтинг@Mail.ru