logo
Международный русскоязычный
торрент-трекер
Menu
Поделиться с друзьями: 
Голосуй за Корсар и получи 500 дублонов
Рейтинг торрент трекеров - UpTracker.ru

Связь / Coherence (2013, ужасы, фантастика, триллер, драма, детектив, BDRip 1080p) | iTunes

Сообщение kisa1980 » 31 июл 2020, 18:24

Название: Связь
Оригинальное название: Coherence
Год выпуска: 2013
Жанр: Ужасы, фантастика, триллер, драма, детектив
Режиссер: Джеймс Уорд Биркит
В ролях: Эмили Бальдони, Мори Стерлинг, Николас Брендон, Элизабет Грэйсен, Алекс Манугян, Лорен Мехер, Хьюго Армстронг, Лорин Скафария, Акилла Золл, Кэрри Паттерсон

О фильме: В ночь падения кометы на званом ужине собираются восемь друзей. Наслаждаясь общением, они даже не подозревают о грядущих изменениях и во время непринужденной беседы становятся участниками цепи странных и загадочных событий. Игры с прошлым, настоящим и будущим.



Страна: США, Великобритания
Студия: Bellanova Films, Ugly Duckling Films
Продолжительность: 01:28:06
Перевод: Профессиональный (многоголосый, закадровый) | iTunes

Качество: BDRip 1080p
Формат: Matroska
Видео: MPEG-4 AVC, 1920x818, 11500 kbps, 23.976 fps
Аудио 1: Russian: AC3, 5.1 ch, 48 kHz, 384 kbps | iTunes
Аудио 2: English: AC3, 5.1 ch, 48 kHz, 448 kbps | Оригинал
Субтитры: Русские (полные (Janetta, Beliar)), английские (полные)

Релиз от:


Общее
Уникальный идентификатор : 181523589766683781115059513938471167732 (0x88902BF57A1DFEFD8A2CF2E6F4CE26F4)
Полное имя : E:Torrent4SvyazBDRip1080p.mkv
Формат : Matroska
Версия формата : Version 4 / Version 2
Размер файла : 7,59 Гбайт
Продолжительность : 1 ч. 28 м.
Общий поток : 12,3 Мбит/сек
Дата кодирования : UTC 2020-07-30 16:50:00
Программа кодирования : mkvmerge v9.5.0 ('Quiet Fire') 64bit
Библиотека кодирования : libebml v1.3.4 + libmatroska v1.4.5

Видео
Идентификатор : 1
Формат : AVC
Формат/Информация : Advanced Video Codec
Профиль формата : High@L4.1
Настройки формата : CABAC / 5 Ref Frames
Параметр CABAC формата : Да
Параметр RefFrames формата : 5 кадров
Идентификатор кодека : V_MPEG4/ISO/AVC
Продолжительность : 1 ч. 28 м.
Битрейт : 11,5 Мбит/сек
Ширина : 1920 пикселей
Высота : 818 пикселей
Соотношение сторон : 2,35:1
Режим частоты кадров : Постоянный
Частота кадров : 23,976 (23976/1000) кадра/сек
Цветовое пространство : YUV
Субдискретизация насыщенности : 4:2:0
Битовая глубина : 8 бит
Тип развёртки : Прогрессивная
Бит/(Пиксели*Кадры) : 0.305
Размер потока : 7,08 Гбайт (93%)
Заголовок : Sisendrovich(R)
Библиотека кодирования : x264 core 159 r2991 1771b55
Настройки программы : cabac=1 / ref=5 / deblock=1:-1:-1 / analyse=0x3:0x133 / me=tesa / subme=11 / psy=1 / psy_rd=1.00:0.00 / mixed_ref=1 / me_range=32 / chroma_me=1 / trellis=2 / 8x8dct=1 / cqm=0 / deadzone=21,11 / fast_pskip=0 / chroma_qp_offset=-2 / threads=24 / lookahead_threads=6 / sliced_threads=0 / nr=0 / decimate=0 / interlaced=0 / bluray_compat=0 / constrained_intra=0 / bframes=12 / b_pyramid=2 / b_adapt=2 / b_bias=0 / direct=3 / weightb=1 / open_gop=0 / weightp=2 / keyint=240 / keyint_min=23 / scenecut=40 / intra_refresh=0 / rc_lookahead=60 / rc=2pass / mbtree=0 / bitrate=11500 / ratetol=1.0 / qcomp=0.70 / qpmin=0 / qpmax=69 / qpstep=4 / cplxblur=20.0 / qblur=0.5 / vbv_maxrate=50000 / vbv_bufsize=62500 / nal_hrd=none / filler=0 / ip_ratio=1.40 / pb_ratio=1.30 / aq=3:0.90
Язык : English
Default : Да
Forced : Нет

Аудио #1
Идентификатор : 2
Формат : AC-3
Формат/Информация : Audio Coding 3
Параметр Endianness формата : Big
Идентификатор кодека : A_AC3
Продолжительность : 1 ч. 27 м.
Вид битрейта : Постоянный
Битрейт : 384 Кбит/сек
Каналы : 6 каналов
Расположение каналов : Front: L C R, Side: L R, LFE
Частота : 48,0 КГц
Частота кадров : 31,250 кадров/сек (1536 SPF)
Битовая глубина : 16 бит
Метод сжатия : С потерями
Размер потока : 242 Мбайт (3%)
Заголовок : rus
Язык : Russian
Default : Да
Forced : Нет

Аудио #2
Идентификатор : 3
Формат : AC-3
Формат/Информация : Audio Coding 3
Параметр Endianness формата : Big
Идентификатор кодека : A_AC3
Продолжительность : 1 ч. 27 м.
Вид битрейта : Постоянный
Битрейт : 448 Кбит/сек
Каналы : 6 каналов
Расположение каналов : Front: L C R, Side: L R, LFE
Частота : 48,0 КГц
Частота кадров : 31,250 кадров/сек (1536 SPF)
Битовая глубина : 16 бит
Метод сжатия : С потерями
Размер потока : 282 Мбайт (4%)
Заголовок : eng
Язык : English
Default : Нет
Forced : Нет

Текст #1
Идентификатор : 4
Формат : UTF-8
Идентификатор кодека : S_TEXT/UTF8
Идентификатор кодека/Информация : UTF-8 Plain Text
Продолжительность : 1 ч. 26 м.
Битрейт : 150 бит/сек
ElementCount : 1470
Размер потока : 95,2 Кбайт (0%)
Заголовок : rusFull
Язык : Russian
Default : Нет
Forced : Нет

Текст #2
Идентификатор : 5
Формат : UTF-8
Идентификатор кодека : S_TEXT/UTF8
Идентификатор кодека/Информация : UTF-8 Plain Text
Продолжительность : 1 ч. 27 м.
Битрейт : 95 бит/сек
ElementCount : 1695
Размер потока : 61,1 Кбайт (0%)
Заголовок : engFull
Язык : English
Default : Нет
Forced : Нет

Меню
00:00:00.000 : en:00:00:00.000
00:15:40.773 : en:00:15:40.773
00:22:39.692 : en:00:22:39.692
00:36:17.425 : en:00:36:17.425
00:42:17.368 : en:00:42:17.368
00:56:26.133 : en:00:56:26.133
01:06:07.964 : en:01:06:07.964
01:15:05.835 : en:01:15:05.835
01:23:38.764 : en:01:23:38.764
КУБКИ

СТАЖ

МЕДАЛИ
Награды:119

За активную помощь проекту (12) Лучший по количеству кубков (4) За отличные раздачи и качество (45) За подробное оформление раздач (10) За отличные комментарии (11) Почётный форумчанин (4) Верный Сид (30) За участие в конкурсах/играх (2)

Аватара пользователя
Тортуга
kisa1980
Главный помощник Администратора-Корсар
  • Торрент
Для скачивания торрента необходимо зарегистрироваться или войти на трекер.

Вернуться в Зарубежное кино (2011-2020 / HD Video)



Рейтинг@Mail.ru