logo
Международный русскоязычный
торрент-трекер
Menu
Doublon
Поделиться с друзьями: 
Голосуй за Корсар и получи 500 дублонов
Рейтинг торрент трекеров - UpTracker.ru

Свадьба в Малиновке (1967, Мюзикл, комедия, BDRip 720р) - KORSAR

Сообщение filbi1976 » 30 дек 2019, 18:51

Свадьба в Малиновке

Год выпуска: 1967
Жанр: Мюзикл, комедия
Режиссёр: Андрей Тутышкин
В ролях: Владимир Самойлов, Людмила Алфимова, Валентина Лысенко, Евгений Лебедев, Зоя Фёдорова, Гелий Сысоев, Михаил Пуговкин, Николай Сличенко, Андрей Абрикосов, Григорий Абрикосов, Михаил Водяной, Тамара Носова, Эмма Трейвас, Алексей Смирнов, Маргарита Криницына, Александр Орлов, Юрий Шепелев, Любовь Тищенко, Александр Захаров, Раиса Пироженко, Алексей Захаров, Николай Пишванов, Лев Степанов, Валентина Николаенко

Описание: Идёт гражданская война. Накануне свадьбы пастуха Андрейки и Яринки в Малиновку врывается банда атамана Грициана Таврического - и у жениха появляется соперник. Но Яринке удаётся сбежать от атамана в лес к красноармейцам. Командир отряда решает освободить Малиновку и, чтобы отвлечь врага, уговаривает девушку разыграть свадьбу с атаманом.



Страна: СССР
Продолжительность: 01:32:19
Перевод: Не требуется

Качество: BDRip 720р
Формат: MKV
Видео: MPEG-4 AVC, 1280x544, 23.976 fps, 7426 kbps
Аудио 1: Russian: AC3, 6 ch, 48 kHz, 448 kbps
Аудио 2: Russian: AC3, 1 ch, 48 kHz, 224 kbps
Субтитры: Русские, английские



  • x264 [info]: frame I:743 Avg QP:18.17 size:164182
  • x264 [info]: frame P:37772 Avg QP:19.87 size: 79912
  • x264 [info]: frame B:94303 Avg QP:21.77 size: 22415
  • x264 [info]: consecutive B-frames: 5.9% 4.9% 13.0% 36.2% 18.0% 20.8% 0.9% 0.1% 0.1%
Общее
Уникальный идентификатор : 170420295902461921970031973042773765267 (0x8035C14E4C62AF56A2B20D626C732C93)
Полное имя : D:\Свадьба в Малиновке_1967-BDRip 720p_KORSAR.mkv
Формат : Matroska
Версия формата : Version 2
Размер файла : 5,33 Гбайт
Продолжительность : 1 ч. 32 м.
Общий поток : 8262 Кбит/сек
Название фильма : Свадьба в Малиновке_1967-BDRip 720p_KORSAR
Дата кодирования : UTC 2019-12-30 17:43:58
Программа кодирования : mkvmerge v5.8.0 ('No Sleep / Pillow') built on Sep 2 2012 15:37:04
Библиотека кодирования : libebml v1.2.3 + libmatroska v1.3.0

Видео
Идентификатор : 1
Формат : AVC
Формат/Информация : Advanced Video Codec
Профиль формата : High@L4.1
Настройки формата : CABAC / 12 Ref Frames
Параметр CABAC формата : Да
Параметр RefFrames формата : 12 кадров
Идентификатор кодека : V_MPEG4/ISO/AVC
Продолжительность : 1 ч. 32 м.
Битрейт : 7426 Кбит/сек
Ширина : 1280 пикселей
Высота : 544 пикселя
Соотношение сторон : 2,35:1
Режим частоты кадров : Постоянный
Частота кадров : 23,976 (24000/1001) кадра/сек
Цветовое пространство : YUV
Субдискретизация насыщенности : 4:2:0
Битовая глубина : 8 бит
Тип развёртки : Прогрессивная
Бит/(Пиксели*Кадры) : 0.445
Размер потока : 4,79 Гбайт (90%)
Библиотека кодирования : x264 core 152 r2851kMod ba24899
Настройки программы : cabac=1 / ref=12 / deblock=1:-3:-2 / analyse=0x3:0x113 / me=umh / subme=10 / psy=1 / fade_compensate=0.00 / psy_rd=1.05:0.10 / mixed_ref=1 / me_range=40 / chroma_me=1 / trellis=2 / 8x8dct=1 / cqm=0 / deadzone=21,11 / fast_pskip=1 / chroma_qp_offset=-3 / threads=12 / lookahead_threads=2 / sliced_threads=0 / nr=0 / decimate=1 / interlaced=0 / bluray_compat=0 / constrained_intra=0 / bframes=8 / b_pyramid=2 / b_adapt=2 / b_bias=0 / direct=1 / weightb=1 / open_gop=0 / weightp=2 / keyint=240 / keyint_min=23 / scenecut=40 / intra_refresh=0 / rc=crf / mbtree=0 / crf=16.5000 / qcomp=0.63 / qpmin=0 / qpmax=33 / qpstep=4 / ip_ratio=1.40 / pb_ratio=1.30 / aq=2:1.00
Язык : English
Default : Да
Forced : Нет
Цветовой диапазон : Limited
Основные цвета : BT.709
Характеристики трансфера : BT.709
Коэффициенты матрицы : BT.709

Аудио #1
Идентификатор : 2
Формат : AC-3
Формат/Информация : Audio Coding 3
Коммерческое название : Dolby Digital
Идентификатор кодека : A_AC3
Продолжительность : 1 ч. 32 м.
Вид битрейта : Постоянный
Битрейт : 448 Кбит/сек
Каналы : 6 каналов
ChannelLayout : L R C LFE Ls Rs
Частота : 48,0 КГц
Частота кадров : 31,250 кадров/сек (1536 SPF)
Метод сжатия : С потерями
Размер потока : 296 Мбайт (5%)
Заголовок : AC3 5.1 @ 448 kbps
Язык : Russian
ServiceKind/String : Complete Main
Default : Да
Forced : Нет

Аудио #2
Идентификатор : 3
Формат : AC-3
Формат/Информация : Audio Coding 3
Коммерческое название : Dolby Digital
Идентификатор кодека : A_AC3
Продолжительность : 1 ч. 32 м.
Вид битрейта : Постоянный
Битрейт : 224 Кбит/сек
Каналы : 1 канал
ChannelLayout : C
Частота : 48,0 КГц
Частота кадров : 31,250 кадров/сек (1536 SPF)
Метод сжатия : С потерями
Размер потока : 148 Мбайт (3%)
Заголовок : AC3 1.0 @ 224 kbps
Язык : Russian
ServiceKind/String : Complete Main
Default : Нет
Forced : Нет

Текст #1
Идентификатор : 4
Формат : UTF-8
Идентификатор кодека : S_TEXT/UTF8
Идентификатор кодека/Информация : UTF-8 Plain Text
Заголовок : RUS
Язык : Russian
Default : Нет
Forced : Нет

Текст #2
Идентификатор : 5
Формат : UTF-8
Идентификатор кодека : S_TEXT/UTF8
Идентификатор кодека/Информация : UTF-8 Plain Text
Заголовок : ENG
Язык : English
Default : Нет
Forced : Нет

Меню
00:00:00.000 : :Chapter 01
00:07:54.807 : :Chapter 02
00:13:37.942 : :Chapter 03
00:21:39.298 : :Chapter 04
00:32:16.935 : :Chapter 05
00:36:33.566 : :Chapter 06
00:45:03.659 : :Chapter 07
00:49:36.682 : :Chapter 08
00:53:58.443 : :Chapter 09
01:00:59.197 : :Chapter 10
01:05:12.658 : :Chapter 11
01:11:36.417 : :Chapter 12
01:15:28.524 : :Chapter 13
01:22:51.216 : :Chapter 14
01:29:34.994 : :Chapter 15
01:32:18.658 : :Chapter 16

Просьба отключить блокировщики рекламы на странице скриншотов по адресу: http://3.lostpic.net/, этим Вы поможете существованию проекта. Заранее спасибо!
The Show Must Go On
Посмотреть товар в профиле пользователя

Нажмите на изображение, чтобы увидеть в полный размер  
1 шт.
Нажмите на изображение, чтобы увидеть в полный размер  
1 шт.
Нажмите на изображение, чтобы увидеть в полный размер  
1 шт.
Нажмите на изображение, чтобы увидеть в полный размер  
1 шт.
Нажмите на изображение, чтобы увидеть в полный размер  
1 шт.
Нажмите на изображение, чтобы увидеть в полный размер  
1 шт.
Нажмите на изображение, чтобы увидеть в полный размер  
1 шт.
Нажмите на изображение, чтобы увидеть в полный размер  
1 шт.
Нажмите на изображение, чтобы увидеть в полный размер  
1 шт.
Нажмите на изображение, чтобы увидеть в полный размер  
1 шт.
Нажмите на изображение, чтобы увидеть в полный размер  
1 шт.
Нажмите на изображение, чтобы увидеть в полный размер  
1 шт.
Нажмите на изображение, чтобы увидеть в полный размер  
1 шт.
Нажмите на изображение, чтобы увидеть в полный размер  
1 шт.
Нажмите на изображение, чтобы увидеть в полный размер  
1 шт.
КУБКИ

СТАЖ

МЕДАЛИ
Награды:152

За активную помощь проекту (5) За отличные раздачи и качество (100) За подробное оформление раздач (3) За отличные комментарии (7) Почётный форумчанин (2) Верный Сид (31) За участие в конкурсах/играх (2) 3 место в конкурсах/играх (1)

Аватара пользователя
Тортуга
filbi1976
Администратор-Корсар
Раздачи группы KORSAR разрешено перезаливать спустя 7 дней после публикации и с обязательным добавлением банера
  • Торрент
Для скачивания торрента необходимо зарегистрироваться или войти на трекер.

Сообщение Lonrak1975 » 30 дек 2019, 22:01

Один из найлучших фильмов СССР!!!
Большое спасибо уважаемый filbi1976 за прекрасный рип :hi: :good:
КУБКИ

СТАЖ

МЕДАЛИ
Награды:30

За помощь проекту в 200 рублей (1) За помощь проекту в 300 рублей (2) Лучший по количеству кубков (2) За отличные комментарии (24) Почётный форумчанин (1)

Аватара пользователя
СССР
Lonrak1975
Мини VIP-300

Сообщение verybigpapa » 30 дек 2019, 22:04

Шикарный фильм! :hi: :good: Огромное спасибо, уважаемый filbi1976! :hi: :respect:
Улыбайтесь, господа! Улыбайтесь!
КУБКИ

СТАЖ

МЕДАЛИ
Награды:67

Пожизненный VIP+ (1) За активную помощь проекту (26) Лучший по количеству кубков (9) За отличные раздачи и качество (1) За отличные комментарии (11) Почётный форумчанин (1) Верный Сид (18)

Аватара пользователя
СССР
verybigpapa
Заслуженный Корсар-Вип+

Сообщение filbi1976 » 31 дек 2019, 01:45

Всем пожалуйста! :hi:
The Show Must Go On
Посмотреть товар в профиле пользователя

Нажмите на изображение, чтобы увидеть в полный размер  
1 шт.
Нажмите на изображение, чтобы увидеть в полный размер  
1 шт.
Нажмите на изображение, чтобы увидеть в полный размер  
1 шт.
Нажмите на изображение, чтобы увидеть в полный размер  
1 шт.
Нажмите на изображение, чтобы увидеть в полный размер  
1 шт.
Нажмите на изображение, чтобы увидеть в полный размер  
1 шт.
Нажмите на изображение, чтобы увидеть в полный размер  
1 шт.
Нажмите на изображение, чтобы увидеть в полный размер  
1 шт.
Нажмите на изображение, чтобы увидеть в полный размер  
1 шт.
Нажмите на изображение, чтобы увидеть в полный размер  
1 шт.
Нажмите на изображение, чтобы увидеть в полный размер  
1 шт.
Нажмите на изображение, чтобы увидеть в полный размер  
1 шт.
Нажмите на изображение, чтобы увидеть в полный размер  
1 шт.
Нажмите на изображение, чтобы увидеть в полный размер  
1 шт.
Нажмите на изображение, чтобы увидеть в полный размер  
1 шт.
КУБКИ

СТАЖ

МЕДАЛИ
Награды:152

За активную помощь проекту (5) За отличные раздачи и качество (100) За подробное оформление раздач (3) За отличные комментарии (7) Почётный форумчанин (2) Верный Сид (31) За участие в конкурсах/играх (2) 3 место в конкурсах/играх (1)

Аватара пользователя
Тортуга
filbi1976
Администратор-Корсар

Сообщение Bars_St » 01 янв 2020, 04:25

Спасибо!!! :hi: :hi: :hi: Хороший фильм :good: :good: :good:
КУБКИ

СТАЖ

МЕДАЛИ
Награды:90

Пожизненный VIP+ (1) За активную помощь проекту (20) Лучший по количеству кубков (27) За отличные раздачи и качество (3) За отличные комментарии (13) Почётный форумчанин (1) Верный Сид (25)

Аватара пользователя
СССР
Bars_St
Заслуженный Корсар-Вип+

Сообщение poletov » 26 мар 2020, 03:59

Ох ты,батюшки!Какие люди к нам пожаловали-бац,бац и мимо!Михаил Пуговкин просто красавчик,как и другие актеры этого замечательного шедевра :good: :respect: :bravo: :super:
КУБКИ

СТАЖ

МЕДАЛИ
Награды:14

За отличные раздачи и качество (1) За отличные комментарии (10) Почётный форумчанин (2) Верный Сид (1)

Аватара пользователя
Russia
poletov
Заслуженный Корсар


Вернуться в Кино времён СССР (HD Video)



Uptime по данным Ping-Admin.Ru - сервиса мониторинга доступности сайтов
Рейтинг@Mail.ru