logo
Международный русскоязычный
торрент-трекер
Menu
Поделиться с друзьями: 
Голосуй за Корсар и получай 1000 дублонов каждый день
Рейтинг торрент трекеров - UpTracker.ru

Супермозг / Le Cerveau (1969, комедия, криминал, приключения, BDRip-AVC)

Сообщение msltel » 16 сен 2020, 10:49

Название: Супермозг
Оригинальное название: Le Cerveau
Страна: Франция, Италия
Жанр: комедия, криминал, приключения
Год выпуска: 1969
Продолжительность: 01:54:34
Режиссер: Жерар Ури
В ролях: Жан-Поль Бельмондо, Бурвиль, Дэвид Нивен, Эли Уоллах, Сильвия Монти, Раймон Жером, Жак Балютен, Анри Атталь, Ив Барсак, Жак Сирон, Робер Дальбан, Марио Давид, Рауль Дельфосс, Томми Дагган, Генри Женес, Софи Гримальди, Фернан Гио, Макс Монтавон, Патрик Прежан, Джон Рико, Тревор А. Стефенс, Арч Тейлор, Доминик Зарди, Роланд Монк, Жан-Франсуа Барр, Миша Байяр, Мик Бессон, Ги Боннафу, Джерри Броувер, Марсель Шарве, Луиджи Кортезе, Даниэль Кроэм, Чарльз Далин, Ги Делорм, Жан Дроз, Мишель Гарлэнд, Жерар Эрнандес, Боб Ингарао, Гордон Лэси, Боб Лерик, Жан Минизини, Рэймонд Пирсон, Жан-Пьер Позье, Дуглас Рид, Пьер Руссель

О фильме: Действие фильма происходит в 1967 году. В связи с выходом Франции из военной организации НАТО, штаб-квартира НАТО переезжает из Парижа в Брюссель. Для перевозки крупной суммы денег, принадлежащих НАТО, используется специальный вагон поезда Париж-Брюссель. Мелкий воришка Артур задумал, наконец, провернуть крупное дело — ограбить НАТОвский поезд, перевозящий тайные фонды четырнадцати стран из Парижа в Брюссель. Для этого Артур бежит из тюрьмы за четыре дня до освобождения при помощи своего друга Анатоля. Но и гениальный британский грабитель по кличке Супермозг, объединившись с сицилийской мафией, тоже готовит ограбление этого поезда... В основе фильма лежит реальная история ограбления поезда Глазго-Лондон в 1963 году.



Качество: BDRip-AVC
Формат: MKV
Видео: MPEG-4 AVC, 2438 Кбит/с, 1024x438, 24 кадр/с
Аудио 1: русский, AC3, 192 kbps, 2 ch, 48 kHz [закадровый двухголосый]
Аудио 2: русский, AC3, 192 kbps, 2 ch, 48 kHz [авторский, Леонид Володарский]
Аудио 3: русский, AC3, 192 kbps, 2 ch, 48 kHz [авторский, Павел Прямостанов]
Аудио 4: французский, AC3, 192 kbps, 2 ch, 48 kHz [оригинал]
Субтитры 1: русские (SRT)
Субтитры 2: английские (SRT)
Главы/чаптеры

Общее
Уникальный идентификатор : 221485275388893966267613328076482672578 (0xA6A0832D61ED55FCAF7FD3477391F7C2)
Полное имя : D:\Video\Супермозг.1969.BDRip-AVC msltel.mkv
Формат : Matroska
Версия формата : Version 4
Размер файла : 2,57 Гбайт
Продолжительность : 1 ч. 54 м.
Общий поток : 3 209 Кбит/сек
Дата кодирования : UTC 2020-09-14 16:01:52
Программа кодирования : mkvmerge v8.2.0 ('World of Adventure') 64bit
Библиотека кодирования : libebml v1.3.1 + libmatroska v1.4.2

Видео
Идентификатор : 1
Формат : AVC
Формат/Информация : Advanced Video Codec
Профиль формата : High@L4.1
Настройки формата : CABAC / 16 Ref Frames
Параметр CABAC формата : Да
Параметр RefFrames формата : 16 кадров
Идентификатор кодека : V_MPEG4/ISO/AVC
Продолжительность : 1 ч. 54 м.
Битрейт : 2 438 Кбит/сек
Ширина : 1 024 пикселя
Высота : 438 пикселей
Соотношение сторон : 2,35:1
Режим частоты кадров : Постоянный
Частота кадров : 24,000 кадра/сек
Цветовое пространство : YUV
Субдискретизация насыщенности : 4:2:0
Битовая глубина : 8 бит
Тип развёртки : Прогрессивная
Бит/(Пиксели*Кадры) : 0.227
Размер потока : 1,95 Гбайт (76%)
Библиотека кодирования : x264 core 159 r2991 1771b55
Настройки программы : cabac=1 / ref=16 / deblock=1:-2:-2 / analyse=0x3:0x113 / me=umh / subme=11 / psy=1 / psy_rd=1.00:0.15 / mixed_ref=1 / me_range=32 / chroma_me=1 / trellis=2 / 8x8dct=1 / cqm=0 / deadzone=21,11 / fast_pskip=0 / chroma_qp_offset=-3 / threads=6 / lookahead_threads=1 / sliced_threads=0 / nr=0 / decimate=1 / interlaced=0 / bluray_compat=0 / constrained_intra=0 / bframes=7 / b_pyramid=2 / b_adapt=2 / b_bias=0 / direct=1 / weightb=1 / open_gop=0 / weightp=2 / keyint=230 / keyint_min=23 / scenecut=40 / intra_refresh=0 / rc_lookahead=40 / rc=crf / mbtree=1 / crf=19.6 / qcomp=0.60 / qpmin=0 / qpmax=69 / qpstep=4 / vbv_maxrate=50000 / vbv_bufsize=62500 / crf_max=0.0 / nal_hrd=none / filler=0 / ip_ratio=1.40 / aq=1:1.00
Язык : French
Default : Да
Forced : Нет

Аудио #1
Идентификатор : 2
Формат : AC-3
Формат/Информация : Audio Coding 3
Коммерческое название : Dolby Digital
Идентификатор кодека : A_AC3
Продолжительность : 1 ч. 54 м.
Вид битрейта : Постоянный
Битрейт : 192 Кбит/сек
Каналы : 2 канала
Channel layout : L R
Частота : 48,0 КГц
Частота кадров : 31,250 кадров/сек (1536 SPF)
Метод сжатия : С потерями
Размер потока : 157 Мбайт (6%)
Заголовок : DVO
Язык : Russian
Service kind : Complete Main
Default : Да
Forced : Нет

Аудио #2
Идентификатор : 3
Формат : AC-3
Формат/Информация : Audio Coding 3
Коммерческое название : Dolby Digital
Идентификатор кодека : A_AC3
Продолжительность : 1 ч. 54 м.
Вид битрейта : Постоянный
Битрейт : 192 Кбит/сек
Каналы : 2 канала
Channel layout : L R
Частота : 48,0 КГц
Частота кадров : 31,250 кадров/сек (1536 SPF)
Метод сжатия : С потерями
Размер потока : 157 Мбайт (6%)
Заголовок : Леонид Володарский
Язык : Russian
Service kind : Complete Main
Default : Нет
Forced : Нет

Аудио #3
Идентификатор : 4
Формат : AC-3
Формат/Информация : Audio Coding 3
Коммерческое название : Dolby Digital
Идентификатор кодека : A_AC3
Продолжительность : 1 ч. 54 м.
Вид битрейта : Постоянный
Битрейт : 192 Кбит/сек
Каналы : 2 канала
Channel layout : L R
Частота : 48,0 КГц
Частота кадров : 31,250 кадров/сек (1536 SPF)
Метод сжатия : С потерями
Размер потока : 157 Мбайт (6%)
Заголовок : Павел Прямостанов
Язык : Russian
Service kind : Complete Main
Default : Нет
Forced : Нет

Аудио #4
Идентификатор : 5
Формат : AC-3
Формат/Информация : Audio Coding 3
Коммерческое название : Dolby Digital
Идентификатор кодека : A_AC3
Продолжительность : 1 ч. 54 м.
Вид битрейта : Постоянный
Битрейт : 192 Кбит/сек
Каналы : 2 канала
Channel layout : L R
Частота : 48,0 КГц
Частота кадров : 31,250 кадров/сек (1536 SPF)
Метод сжатия : С потерями
Размер потока : 157 Мбайт (6%)
Заголовок : оригинал
Язык : French
Service kind : Complete Main
Default : Нет
Forced : Нет

Текст #1
Идентификатор : 6
Формат : UTF-8
Идентификатор кодека : S_TEXT/UTF8
Идентификатор кодека/Информация : UTF-8 Plain Text
Продолжительность : 1 ч. 52 м.
Битрейт : 44 бит/сек
Count of elements : 907
Размер потока : 36,6 Кбайт (0%)
Заголовок : русские
Язык : Russian
Default : Нет
Forced : Нет

Текст #2
Идентификатор : 7
Формат : UTF-8
Идентификатор кодека : S_TEXT/UTF8
Идентификатор кодека/Информация : UTF-8 Plain Text
Продолжительность : 1 ч. 48 м.
Битрейт : 29 бит/сек
Count of elements : 903
Размер потока : 23,5 Кбайт (0%)
Заголовок : французские
Язык : French
Default : Нет
Forced : Нет

Текст #3
Идентификатор : 8
Формат : UTF-8
Идентификатор кодека : S_TEXT/UTF8
Идентификатор кодека/Информация : UTF-8 Plain Text
Продолжительность : 1 ч. 48 м.
Битрейт : 26 бит/сек
Count of elements : 822
Размер потока : 21,4 Кбайт (0%)
Заголовок : английские
Язык : English
Default : Нет
Forced : Нет

Меню
00:00:00.000 : en:00:00:00.000
00:08:19.750 : en:00:08:19.750
00:14:46.833 : en:00:14:46.833
00:21:58.500 : en:00:21:58.500
00:30:51.208 : en:00:30:51.208
00:40:49.542 : en:00:40:49.542
00:55:20.083 : en:00:55:20.083
01:03:34.250 : en:01:03:34.250
01:20:47.625 : en:01:20:47.625
01:27:21.000 : en:01:27:21.000
01:33:24.792 : en:01:33:24.792
01:51:09.083 : en:01:51:09.083

---[Information] [14.09.2020 22:54:24] x264 [info]: frame I:1388 Avg QP:17.93 size: 82108
---[Information] [14.09.2020 22:54:24] x264 [info]: frame P:37073 Avg QP:21.47 size: 25013
---[Information] [14.09.2020 22:54:24] x264 [info]: frame B:126534 Avg QP:24.33 size: 8332
---[Information] [14.09.2020 22:54:24] x264 [info]: consecutive B-frames: 1.5% 2.2% 6.2% 36.8% 21.1% 26.1% 4.3% 1.7%
---[Information] [14.09.2020 22:54:24] x264 [info]: mb I I16..4: 8.7% 67.2% 24.1%
---[Information] [14.09.2020 22:54:24] x264 [info]: mb P I16..4: 1.0% 11.5% 2.2% P16..4: 33.3% 37.0% 12.3% 0.0% 0.0% skip: 2.7%
---[Information] [14.09.2020 22:54:24] x264 [info]: mb B I16..4: 0.1% 2.4% 0.3% B16..8: 39.1% 18.1% 2.9% direct: 5.3% skip:31.8% L0:43.5% L1:43.6% BI:12.9%
---[Information] [14.09.2020 22:54:24] x264 [info]: 8x8 transform intra:79.1% inter:63.9%
---[Information] [14.09.2020 22:54:24] x264 [info]: coded y,uvDC,uvAC intra: 91.4% 73.6% 34.9% inter: 28.5% 18.5% 1.2%
---[Information] [14.09.2020 22:54:24] x264 [info]: i16 v,h,dc,p: 25% 26% 9% 41%
---[Information] [14.09.2020 22:54:24] x264 [info]: i8 v,h,dc,ddl,ddr,vr,hd,vl,hu: 10% 8% 6% 9% 14% 13% 14% 11% 13%
---[Information] [14.09.2020 22:54:24] x264 [info]: i4 v,h,dc,ddl,ddr,vr,hd,vl,hu: 12% 12% 3% 8% 14% 14% 13% 10% 13%
---[Information] [14.09.2020 22:54:24] x264 [info]: i8c dc,h,v,p: 30% 31% 21% 18%
---[Information] [14.09.2020 22:54:24] x264 [info]: Weighted P-Frames: Y:10.3% UV:5.5%
---[Information] [14.09.2020 22:54:24] x264 [info]: ref P L0: 40.9% 12.5% 16.8% 6.0% 5.4% 3.6% 3.6% 1.8% 1.8% 1.4% 1.4% 1.1% 1.2% 0.9% 1.0% 0.7%
---[Information] [14.09.2020 22:54:24] x264 [info]: ref B L0: 80.0% 7.9% 3.6% 1.9% 1.4% 1.2% 1.0% 0.6% 0.5% 0.5% 0.4% 0.4% 0.3% 0.3% 0.1%
---[Information] [14.09.2020 22:54:24] x264 [info]: ref B L1: 96.7% 3.3%
---[Information] [14.09.2020 22:54:24] x264 [info]: kb/s:2438.46
---[Information] [14.09.2020 22:54:24] encoded 164995 frames, 4.74 fps, 2438.46 kb/s

"И не совершил там многих чудес по неверию их." (Евангелие от Матфея)
КУБКИ

СТАЖ

МЕДАЛИ
Награды:43

За отличные раздачи и качество (23) За подробное оформление раздач (2) За отличные комментарии (1) Почётный форумчанин (1) Верный Сид (15)

Аватара пользователя
Russia
msltel
Уважаемый Релизёр-Корсар
  • Торрент
Для скачивания торрента необходимо зарегистрироваться или войти на трекер.

Вернуться в Классика зарубежного кино (фильмы до 1980 года)



Рейтинг@Mail.ru