logo
Международный русскоязычный
торрент-трекер
Menu
Поделиться с друзьями: 
Голосуй за Корсар и получай 1000 дублонов каждый день
Рейтинг торрент трекеров - UpTracker.ru

Супермозг / Le Cerveau (1969, комедия, криминал, приключения, BDRip 720p)

Сообщение msltel » 16 сен 2020, 12:12

Название: Супермозг
Оригинальное название: Le Cerveau
Страна: Франция, Италия
Жанр: комедия, криминал, приключения
Год выпуска: 1969
Продолжительность: 01:54:34
Режиссер: Жерар Ури
В ролях: Жан-Поль Бельмондо, Бурвиль, Дэвид Нивен, Эли Уоллах, Сильвия Монти, Раймон Жером, Жак Балютен, Анри Атталь, Ив Барсак, Жак Сирон, Робер Дальбан, Марио Давид, Рауль Дельфосс, Томми Дагган, Генри Женес, Софи Гримальди, Фернан Гио, Макс Монтавон, Патрик Прежан, Джон Рико, Тревор А. Стефенс, Арч Тейлор, Доминик Зарди, Роланд Монк, Жан-Франсуа Барр, Миша Байяр, Мик Бессон, Ги Боннафу, Джерри Броувер, Марсель Шарве, Луиджи Кортезе, Даниэль Кроэм, Чарльз Далин, Ги Делорм, Жан Дроз, Мишель Гарлэнд, Жерар Эрнандес, Боб Ингарао, Гордон Лэси, Боб Лерик, Жан Минизини, Рэймонд Пирсон, Жан-Пьер Позье, Дуглас Рид, Пьер Руссель

О фильме: Действие фильма происходит в 1967 году. В связи с выходом Франции из военной организации НАТО, штаб-квартира НАТО переезжает из Парижа в Брюссель. Для перевозки крупной суммы денег, принадлежащих НАТО, используется специальный вагон поезда Париж-Брюссель. Мелкий воришка Артур задумал, наконец, провернуть крупное дело — ограбить НАТОвский поезд, перевозящий тайные фонды четырнадцати стран из Парижа в Брюссель. Для этого Артур бежит из тюрьмы за четыре дня до освобождения при помощи своего друга Анатоля. Но и гениальный британский грабитель по кличке Супермозг, объединившись с сицилийской мафией, тоже готовит ограбление этого поезда... В основе фильма лежит реальная история ограбления поезда Глазго-Лондон в 1963 году.



Качество: BDRip 720p
Формат: MKV
Видео: MPEG-4 AVC, 5117 Кбит/с, 1280x548, 24 кадр/с
Аудио 1: русский, AC3, 192 kbps, 2 ch, 48 kHz [закадровый двухголосый]
Аудио 2: русский, AC3, 192 kbps, 2 ch, 48 kHz [авторский, Леонид Володарский]
Аудио 3: русский, AC3, 192 kbps, 2 ch, 48 kHz [авторский, Павел Прямостанов]
Аудио 4: французский, DTS, 1509 kbps, 2 ch, 48 kHz [оригинал]
Субтитры 1: русские (SRT)
Субтитры 2: английские (SRT)
Главы/чаптеры

Общее
Уникальный идентификатор : 175159764308165530699173965605692450176 (0x83C68B23AFE051458B6A59A9CCBB2580)
Полное имя : D:\Video\Супермозг.1969.BDRip 720p msltel.mkv
Формат : Matroska
Версия формата : Version 4
Размер файла : 5,77 Гбайт
Продолжительность : 1 ч. 54 м.
Общий поток : 7 205 Кбит/сек
Дата кодирования : UTC 2020-09-16 04:28:01
Программа кодирования : mkvmerge v8.2.0 ('World of Adventure') 64bit
Библиотека кодирования : libebml v1.3.1 + libmatroska v1.4.2

Видео
Идентификатор : 1
Формат : AVC
Формат/Информация : Advanced Video Codec
Профиль формата : High@L4.1
Настройки формата : CABAC / 11 Ref Frames
Параметр CABAC формата : Да
Параметр RefFrames формата : 11 кадров
Идентификатор кодека : V_MPEG4/ISO/AVC
Продолжительность : 1 ч. 54 м.
Битрейт : 5 117 Кбит/сек
Ширина : 1 280 пикселей
Высота : 548 пикселей
Соотношение сторон : 2,35:1
Режим частоты кадров : Постоянный
Частота кадров : 24,000 кадра/сек
Цветовое пространство : YUV
Субдискретизация насыщенности : 4:2:0
Битовая глубина : 8 бит
Тип развёртки : Прогрессивная
Бит/(Пиксели*Кадры) : 0.304
Размер потока : 4,09 Гбайт (71%)
Библиотека кодирования : x264 core 159 r2991 1771b55
Настройки программы : cabac=1 / ref=11 / deblock=1:-2:-2 / analyse=0x3:0x113 / me=umh / subme=11 / psy=1 / psy_rd=1.00:0.15 / mixed_ref=1 / me_range=32 / chroma_me=1 / trellis=2 / 8x8dct=1 / cqm=0 / deadzone=21,11 / fast_pskip=0 / chroma_qp_offset=-3 / threads=6 / lookahead_threads=1 / sliced_threads=0 / nr=0 / decimate=1 / interlaced=0 / bluray_compat=0 / constrained_intra=0 / bframes=7 / b_pyramid=2 / b_adapt=2 / b_bias=0 / direct=1 / weightb=1 / open_gop=0 / weightp=2 / keyint=230 / keyint_min=23 / scenecut=40 / intra_refresh=0 / rc_lookahead=40 / rc=crf / mbtree=1 / crf=18.6 / qcomp=0.60 / qpmin=0 / qpmax=69 / qpstep=4 / vbv_maxrate=50000 / vbv_bufsize=62500 / crf_max=0.0 / nal_hrd=none / filler=0 / ip_ratio=1.40 / aq=1:1.00
Язык : French
Default : Да
Forced : Нет

Аудио #1
Идентификатор : 2
Формат : AC-3
Формат/Информация : Audio Coding 3
Коммерческое название : Dolby Digital
Идентификатор кодека : A_AC3
Продолжительность : 1 ч. 54 м.
Вид битрейта : Постоянный
Битрейт : 192 Кбит/сек
Каналы : 2 канала
Channel layout : L R
Частота : 48,0 КГц
Частота кадров : 31,250 кадров/сек (1536 SPF)
Метод сжатия : С потерями
Размер потока : 157 Мбайт (3%)
Заголовок : DVO
Язык : Russian
Service kind : Complete Main
Default : Да
Forced : Нет

Аудио #2
Идентификатор : 3
Формат : AC-3
Формат/Информация : Audio Coding 3
Коммерческое название : Dolby Digital
Идентификатор кодека : A_AC3
Продолжительность : 1 ч. 54 м.
Вид битрейта : Постоянный
Битрейт : 192 Кбит/сек
Каналы : 2 канала
Channel layout : L R
Частота : 48,0 КГц
Частота кадров : 31,250 кадров/сек (1536 SPF)
Метод сжатия : С потерями
Размер потока : 157 Мбайт (3%)
Заголовок : Леонид Володарский
Язык : Russian
Service kind : Complete Main
Default : Нет
Forced : Нет

Аудио #3
Идентификатор : 4
Формат : AC-3
Формат/Информация : Audio Coding 3
Коммерческое название : Dolby Digital
Идентификатор кодека : A_AC3
Продолжительность : 1 ч. 54 м.
Вид битрейта : Постоянный
Битрейт : 192 Кбит/сек
Каналы : 2 канала
Channel layout : L R
Частота : 48,0 КГц
Частота кадров : 31,250 кадров/сек (1536 SPF)
Метод сжатия : С потерями
Размер потока : 157 Мбайт (3%)
Заголовок : Павел Прямостанов
Язык : Russian
Service kind : Complete Main
Default : Нет
Forced : Нет

Аудио #4
Идентификатор : 5
Формат : DTS
Формат/Информация : Digital Theater Systems
Идентификатор кодека : A_DTS
Продолжительность : 1 ч. 54 м.
Вид битрейта : Постоянный
Битрейт : 1 509 Кбит/сек
Каналы : 2 канала
Channel layout : L R
Частота : 48,0 КГц
Частота кадров : 93,750 кадра/сек (512 SPF)
Битовая глубина : 16 бит
Метод сжатия : С потерями
Размер потока : 1,21 Гбайт (21%)
Заголовок : оригинал
Язык : French
Default : Нет
Forced : Нет

Текст #1
Идентификатор : 6
Формат : UTF-8
Идентификатор кодека : S_TEXT/UTF8
Идентификатор кодека/Информация : UTF-8 Plain Text
Продолжительность : 1 ч. 52 м.
Битрейт : 44 бит/сек
Count of elements : 907
Размер потока : 36,6 Кбайт (0%)
Заголовок : русские
Язык : Russian
Default : Нет
Forced : Нет

Текст #2
Идентификатор : 7
Формат : UTF-8
Идентификатор кодека : S_TEXT/UTF8
Идентификатор кодека/Информация : UTF-8 Plain Text
Продолжительность : 1 ч. 48 м.
Битрейт : 29 бит/сек
Count of elements : 903
Размер потока : 23,5 Кбайт (0%)
Заголовок : французские
Язык : French
Default : Нет
Forced : Нет

Текст #3
Идентификатор : 8
Формат : UTF-8
Идентификатор кодека : S_TEXT/UTF8
Идентификатор кодека/Информация : UTF-8 Plain Text
Продолжительность : 1 ч. 48 м.
Битрейт : 26 бит/сек
Count of elements : 822
Размер потока : 21,4 Кбайт (0%)
Заголовок : английские
Язык : English
Default : Нет
Forced : Нет

Меню
00:00:00.000 : en:00:00:00.000
00:08:19.750 : en:00:08:19.750
00:14:46.833 : en:00:14:46.833
00:21:58.500 : en:00:21:58.500
00:30:51.208 : en:00:30:51.208
00:40:49.542 : en:00:40:49.542
00:55:20.083 : en:00:55:20.083
01:03:34.250 : en:01:03:34.250
01:20:47.625 : en:01:20:47.625
01:27:21.000 : en:01:27:21.000
01:33:24.792 : en:01:33:24.792
01:51:09.083 : en:01:51:09.083

---[Information] [15.09.2020 20:23:32] y4m [info]: 1280x548p 1:1 @ 24/1 fps (cfr)
---[Information] [15.09.2020 20:23:32] x264 [info]: using SAR=1/1
---[Information] [15.09.2020 20:23:32] x264 [info]: using cpu capabilities: MMX2 SSE2Fast SSSE3 SSE4.2 AVX
---[Information] [15.09.2020 20:23:32] x264 [info]: profile High, level 4.1, 4:2:0, 8-bit
---[Information] [16.09.2020 7:09:03] x264 [info]: frame I:1332 Avg QP:16.99 size:130053
---[Information] [16.09.2020 7:09:03] x264 [info]: frame P:36818 Avg QP:20.22 size: 46059
---[Information] [16.09.2020 7:09:03] x264 [info]: frame B:126845 Avg QP:22.57 size: 19929
---[Information] [16.09.2020 7:09:03] x264 [info]: consecutive B-frames: 1.4% 2.4% 5.4% 37.7% 19.9% 26.6% 5.1% 1.6%
---[Information] [16.09.2020 7:09:03] x264 [info]: mb I I16..4: 8.7% 72.0% 19.2%
---[Information] [16.09.2020 7:09:03] x264 [info]: mb P I16..4: 1.1% 17.7% 2.5% P16..4: 29.9% 35.1% 11.9% 0.0% 0.0% skip: 1.8%
---[Information] [16.09.2020 7:09:03] x264 [info]: mb B I16..4: 0.1% 4.4% 0.4% B16..8: 38.9% 19.7% 3.2% direct: 8.8% skip:24.4% L0:43.2% L1:42.8% BI:14.0%
---[Information] [16.09.2020 7:09:03] x264 [info]: 8x8 transform intra:84.6% inter:64.8%
---[Information] [16.09.2020 7:09:03] x264 [info]: coded y,uvDC,uvAC intra: 93.4% 73.6% 33.8% inter: 41.7% 24.7% 1.5%
---[Information] [16.09.2020 7:09:03] x264 [info]: i16 v,h,dc,p: 25% 24% 9% 42%
---[Information] [16.09.2020 7:09:03] x264 [info]: i8 v,h,dc,ddl,ddr,vr,hd,vl,hu: 9% 9% 7% 9% 14% 13% 14% 11% 14%
---[Information] [16.09.2020 7:09:03] x264 [info]: i4 v,h,dc,ddl,ddr,vr,hd,vl,hu: 20% 11% 4% 7% 13% 12% 12% 9% 12%
---[Information] [16.09.2020 7:09:03] x264 [info]: i8c dc,h,v,p: 30% 32% 21% 17%
---[Information] [16.09.2020 7:09:03] x264 [info]: Weighted P-Frames: Y:9.4% UV:5.1%
---[Information] [16.09.2020 7:09:03] x264 [info]: ref P L0: 39.3% 11.6% 17.9% 7.0% 6.4% 4.4% 4.4% 2.3% 2.4% 1.9% 2.2% 0.2% 0.0%
---[Information] [16.09.2020 7:09:03] x264 [info]: ref B L0: 81.4% 7.7% 3.6% 2.0% 1.5% 1.2% 1.0% 0.7% 0.5% 0.3%
---[Information] [16.09.2020 7:09:03] x264 [info]: ref B L1: 97.1% 2.9%
---[Information] [16.09.2020 7:09:03] x264 [info]: kb/s:5116.58
---[Information] [16.09.2020 7:09:03] encoded 164995 frames, 4.26 fps, 5116.58 kb/s

Последний раз редактировалось msltel 16 сен 2020, 13:46, всего редактировалось 1 раз.
"И не совершил там многих чудес по неверию их." (Евангелие от Матфея)
КУБКИ

СТАЖ

МЕДАЛИ
Награды:43

За отличные раздачи и качество (23) За подробное оформление раздач (2) За отличные комментарии (1) Почётный форумчанин (1) Верный Сид (15)

Аватара пользователя
Russia
msltel
Уважаемый Релизёр-Корсар
  • Торрент
Для скачивания торрента необходимо зарегистрироваться или войти на трекер.

Сообщение verybigpapa » 16 сен 2020, 13:17

Уважаемый msltel, большое спасибо. :hi: :respect:
Улыбайтесь, господа! Улыбайтесь!
КУБКИ

СТАЖ

МЕДАЛИ
Награды:70

Пожизненный VIP+ (1) За активную помощь проекту VIP (28) Лучший по количеству кубков (9) За отличные раздачи и качество (1) За отличные комментарии (12) Почётный форумчанин (1) Верный Сид (18)

Аватара пользователя
СССР
verybigpapa
Заслуженный Корсар-VIP+

Сообщение Bars_St » 21 сен 2020, 06:16

Спасибо!!! :hi: :hi: :hi:
КУБКИ

СТАЖ

МЕДАЛИ
Награды:97

Пожизненный VIP+ (1) За активную помощь проекту VIP (22) Лучший по количеству кубков (29) За отличные раздачи и качество (3) За отличные комментарии (14) Почётный форумчанин (1) Верный Сид (27)

Аватара пользователя
СССР
Bars_St
Заслуженный Корсар-VIP+


Вернуться в Классика зарубежного кино (фильмы до 1980 года / HD Video)



Рейтинг@Mail.ru