logo
Международный русскоязычный
торрент-трекер
Menu

Doublon
Поделиться с друзьями: 
Голосуй за Корсар и получи 100 дублонов
Рейтинг торрент трекеров - UpTracker.ru

Судья Дредд / Dredd (2012, Фантастика, боевик, триллер, криминал, UHD BDRemux 2160p)

Сообщение spam » 14 янв 2018, 12:10

Название: Судья Дредд
Оригинальное название: Dredd
Год выхода: 2012
Жанр: Фантастика, боевик, триллер, криминал
Режиссер: Пит Трэвис
В ролях: Карл Урбан, Оливия Тирлби, Лина Хиди, Вуд Харрис, Донал Глисон, Рэйчел Вуд, Андил Мнгади, Портес Ксандо Стинкамп, Джейсон Коуп, Эмма Бреши, Рэки Айола, Тамер Барджаг, Уоррик Грайр, Шоки Мокгапа

О фильме: Будущее не столь красочно и великолепно, каким его представляют современные люди. Через несколько столетий человечество окажется на грани самоуничтожения, захлёбываясь в кровавых преступлениях, смертельных грехах и беспорядочных убийствах. Старую систему правосудия будет невозможно использовать — анархия, всеобщие беспорядки вынуждают ещё сохранившуюся власть, тем не менее, потерявшую всякий авторитет и легитимность, пойти на отчаянные крайние меры и ввести институт Судей — универсальных полицейских, правоприменителей, а по совместительству — и прокуроров, которые упростили бы весь процесс задержания, следствия и судебных тяжб, совмещая в одном лице все должности блюстителей и защитников правопорядка. Негодяи, подонки, вконец обнаглевшие и распоясавшиеся преступники и бандитские группировки всё равно не желают сдавать свои упрочившие позиции, опасаясь лишь одного — встречи с легендарным Судьёй Дреддом, пересажавшим или расстрелявшим не одну сотню насильников, террористов и жадных до человеческих страданий маньяков. В то время, как беспорядки и бесчинства бушуют на улицах города, Дредд спешит вернуть порядок, Закон и тишину, которым, кажется, уже никогда не обрести свою былую полноту, мощь и силу…



Страна: ЮАР, Великобритания
Студия: DNA Films, IM Global, Reliance Big Entertainment, Reliance Big Pictures
Продолжительность: 01:35:51
Перевод: Дублированный, авторский

Кодек: MPEG-H HEVC HDR Video
Качество: UHD BDRemux 2160p
Видео: 70.6 Мбит/с, 3840x2160, 23.976 Кадр/с
Аудио 1: Russian: 48 kHz/16-bit, DTS-HD MA 5.1, 2329.00 kbps avg - (Дубляж)
Аудио 2: Russian: 48 kHz/24-bit, DTS-HD MA 7.1, 5001.00 kbps avg - Авторский (Ю.Сербин)
Аудио 3: Russian: 48 kHz/24-bit, DTS-HD MA 7.1, 4983.00 kbps avg - Авторский(А.Гаврилов)
Аудио 4: Ukrainian: 48 kHz/24-bit, DTS-HD MA 7.1, 5248.00 kbps avg - Профессиональный многоголосый (Омикрон)
Аудио 5: English: 48 kHz/24-bit, TrueHD+Atmos 7.1, 4633.00 kbps avg - Оригинал
Аудио 6: English: 48 kHz/16-bit, DTS 5.1, 1509 kbps avg - Оригинал
Субтитры: Русские, английские

Общее
Уникальный идентификатор : 125379075404137603997237101599972880920 (0x5E5321AEB48ECA060EA466EC76637218)
Полное имя : L:\Dredd.2012.2160p.UHD.BluRay.REMUX.HEVC.HDR.DTS-HD.MA.TrueHD.7.1.Atmos.IVA(3xRUS.UKR.ENG).mkv
Формат : Matroska
Версия формата : Version 4 / Version 2
Размер файла : 63,2 Гбайт
Продолжительность : 1 ч. 35 м.
Режим общего битрейта : Переменный
Общий поток : 94,4 Мбит/сек
Название фильма : Dredd.2012.2160p.UHD.BluRay.REMUX.HEVC.HDR.DTS-HD.MA.TrueHD.7.1.Atmos.IVA(3xRUS.UKR.ENG)
Дата кодирования : UTC 2018-01-14 01:15:25
Программа кодирования : mkvmerge v19.0.0 ('Brave Captain') 64-bit
Библиотека кодирования : libebml v1.3.5 + libmatroska v1.4.8
Обложка : Yes
Attachments : cover.jpg

Видео
Идентификатор : 1
Формат : HEVC
Формат/Информация : High Efficiency Video Coding
Профиль формата : Main 10@L5.1@High
Идентификатор кодека : V_MPEGH/ISO/HEVC
Продолжительность : 1 ч. 35 м.
Битрейт : 70,6 Мбит/сек
Ширина : 3840 пикселей
Высота : 2160 пикселей
Соотношение сторон : 16:9
Режим частоты кадров : Постоянный
Частота кадров : 23,976 (24000/1001) кадра/сек
Цветовое пространство : YUV
Субдискретизация насыщенности : 4:2:0 (Type 2)
Битовая глубина : 10 бит
Бит/(Пиксели*Кадры) : 0.355
Размер потока : 47,3 Гбайт (75%)
Заголовок : Dredd.2012.2160p.BluRay.REMUX.HEVC.HDR
Библиотека кодирования : ATEME Titan File 3.7.9 (4.7.9.0)
Default : Да
Forced : Нет
Цветовой диапазон : Limited
Основные цвета : BT.2020
Характеристики трансфера : PQ
Коэффициенты матрицы : BT.2020 non-constant
MasteringDisplay_ColorPrimaries : Display P3
MasteringDisplay_Luminance : min: 0.0000 cd/m2, max: 1000 cd/m2
MaxCLL : 1000 cd/m2
MaxFALL : 1000 cd/m2

Аудио #1
Идентификатор : 2
Формат : DTS
Формат/Информация : Digital Theater Systems
Профиль формата : MA / Core
Идентификатор кодека : A_DTS
Продолжительность : 1 ч. 35 м.
Вид битрейта : Переменный / Постоянный
Битрейт : 2329 Кбит/сек / 1509 Кбит/сек
Каналы : 6 каналов
Расположение каналов : Front: L C R, Side: L R, LFE
Частота : 48,0 КГц
Частота кадров : 93,750 кадра/сек (512 SPF)
Битовая глубина : 16 бит
Метод сжатия : Без потерь / Lossy
Размер потока : 1,56 Гбайт (2%)
Заголовок : Дубляж, Blu-ray
Язык : Russian
Default : Да
Forced : Нет

Аудио #2
Идентификатор : 3
Формат : DTS
Формат/Информация : Digital Theater Systems
Профиль формата : MA / Core
Идентификатор кодека : A_DTS
Продолжительность : 1 ч. 35 м.
Вид битрейта : Переменный / Постоянный
Битрейт : 5001 Кбит/сек / 1509 Кбит/сек
Каналы : 8 каналов / 6 каналов
Расположение каналов : Front: L C R, Side: L R, Back: L R, LFE / Front: L C R, Side: L R, LFE
Частота : 48,0 КГц
Частота кадров : 93,750 кадра/сек (512 SPF)
Битовая глубина : 24 бит
Метод сжатия : Без потерь / Lossy
Размер потока : 3,35 Гбайт (5%)
Заголовок : Одноголосый закадровый, Ю.Сербин
Язык : Russian
Default : Нет
Forced : Нет

Аудио #3
Идентификатор : 4
Формат : DTS
Формат/Информация : Digital Theater Systems
Профиль формата : MA / Core
Идентификатор кодека : A_DTS
Продолжительность : 1 ч. 35 м.
Вид битрейта : Переменный / Постоянный
Битрейт : 4982 Кбит/сек / 1509 Кбит/сек
Каналы : 8 каналов / 6 каналов
Расположение каналов : Front: L C R, Side: L R, Back: L R, LFE / Front: L C R, Side: L R, LFE
Частота : 48,0 КГц
Частота кадров : 93,750 кадра/сек (512 SPF)
Битовая глубина : 24 бит
Метод сжатия : Без потерь / Lossy
Размер потока : 3,34 Гбайт (5%)
Заголовок : Одноголосый закадровый, А.Гаврилов
Язык : Russian
Default : Нет
Forced : Нет

Аудио #4
Идентификатор : 5
Формат : DTS
Формат/Информация : Digital Theater Systems
Профиль формата : MA / Core
Идентификатор кодека : A_DTS
Продолжительность : 1 ч. 35 м.
Вид битрейта : Переменный / Постоянный
Битрейт : 5248 Кбит/сек / 1509 Кбит/сек
Каналы : 8 каналов / 6 каналов
Расположение каналов : Front: L C R, Side: L R, Back: L R, LFE / Front: L C R, Side: L R, LFE
Частота : 48,0 КГц
Частота кадров : 93,750 кадра/сек (512 SPF)
Битовая глубина : 24 бит
Метод сжатия : Без потерь / Lossy
Размер потока : 3,51 Гбайт (6%)
Заголовок : Многоголосый закадровый, студия «Омикрон»
Язык : Ukrainian
Default : Нет
Forced : Нет

Аудио #5
Идентификатор : 6
Формат : TrueHD
Профиль формата : TrueHD+Atmos / TrueHD
Идентификатор кодека : A_TRUEHD
Продолжительность : 1 ч. 35 м.
Вид битрейта : Переменный
Битрейт : 4633 Кбит/сек
Максимальный битрейт : 8139 Кбит/сек
Каналы : Object Based / 8 каналов
Расположение каналов : Object Based / Front: L C R, Side: L R, Back: L R, LFE
Частота : / 48,0 КГц
Частота кадров : 1200,000 кадров/сек (40 SPF)
Метод сжатия : Без потерь
Размер потока : 3,10 Гбайт (5%)
Заголовок : Original
Язык : English
Default : Нет
Forced : Нет

Аудио #6
Идентификатор : 7
Формат : DTS
Формат/Информация : Digital Theater Systems
Идентификатор кодека : A_DTS
Продолжительность : 1 ч. 35 м.
Вид битрейта : Постоянный
Битрейт : 1509 Кбит/сек
Каналы : 6 каналов
Расположение каналов : Front: L C R, Side: L R, LFE
Частота : 48,0 КГц
Частота кадров : 93,750 кадра/сек (512 SPF)
Битовая глубина : 24 бит
Метод сжатия : С потерями
Размер потока : 1,01 Гбайт (2%)
Заголовок : English
Язык : English
Default : Нет
Forced : Нет

Текст #1
Идентификатор : 8
Формат : UTF-8
Идентификатор кодека : S_TEXT/UTF8
Идентификатор кодека/Информация : UTF-8 Plain Text
Продолжительность : 1 ч. 28 м.
Битрейт : 69 бит/сек
ElementCount : 733
Размер потока : 45,2 Кбайт (0%)
Заголовок : Full
Язык : Russian
Default : Нет
Forced : Нет

Текст #2
Идентификатор : 9
Формат : UTF-8
Идентификатор кодека : S_TEXT/UTF8
Идентификатор кодека/Информация : UTF-8 Plain Text
Продолжительность : 1 ч. 28 м.
Битрейт : 68 бит/сек
ElementCount : 737
Размер потока : 44,1 Кбайт (0%)
Заголовок : Groby
Язык : Russian
Default : Нет
Forced : Нет

Текст #3
Идентификатор : 10
Формат : UTF-8
Идентификатор кодека : S_TEXT/UTF8
Идентификатор кодека/Информация : UTF-8 Plain Text
Продолжительность : 1 ч. 28 м.
Битрейт : 40 бит/сек
ElementCount : 752
Размер потока : 26,3 Кбайт (0%)
Заголовок : Full
Язык : English
Default : Нет
Forced : Нет

Текст #4
Идентификатор : 11
Формат : UTF-8
Идентификатор кодека : S_TEXT/UTF8
Идентификатор кодека/Информация : UTF-8 Plain Text
Продолжительность : 1 ч. 28 м.
Битрейт : 44 бит/сек
ElementCount : 1009
Размер потока : 28,8 Кбайт (0%)
Заголовок : SDH
Язык : English
Default : Нет
Forced : Нет

Меню
00:00:00.000 : en:Chapter 1
00:05:43.552 : en:Chapter 2
00:08:14.661 : en:Chapter 3
00:14:17.355 : en:Chapter 4
00:19:42.681 : en:Chapter 5
00:24:09.323 : en:Chapter 6
00:27:21.056 : en:Chapter 7
00:36:01.284 : en:Chapter 8
00:39:49.012 : en:Chapter 9
00:48:26.945 : en:Chapter 10
00:54:39.650 : en:Chapter 11
01:00:57.237 : en:Chapter 12
01:06:30.570 : en:Chapter 13
01:12:01.649 : en:Chapter 14
01:20:10.264 : en:Chapter 15
01:27:00.381 : en:Chapter 16



Аватара пользователя
spam
Уважаемый Релизёр-Корсар
 
 

Награды: 16
Лучший по количеству кубков (2) За отличные раздачи и качество (11) За подробное оформление раздач (2)
  • Торрент
Для скачивания торрента необходимо зарегистрироваться или войти на трекер.

Сообщение kisa1980 » 14 янв 2018, 13:02

spam, UHD BDRemux 2160p не забывайте добавлять в заголовок и описание раздачи, в этой добавил. :hi:
Аватара пользователя
kisa1980
Помощник Администратора-Корсар
 
 

Награды: 22
За помощь проекту (4) Лучший по количеству кубков (3) За отличные раздачи и качество (5) За подробное оформление раздач (2) За отличные комментарии (4) Верный Сид (2) За участие в конкурсах (1)


Вернуться в Фильмы 4К (UHD 4K)



Uptime по данным Ping-Admin.Ru - сервиса мониторинга доступности сайтов
Рейтинг@Mail.ru