logo
Международный русскоязычный
торрент-трекер

Старец Паисий и я, стоящий вверх ногами (2012, Драма, биография, DVDRip-AVC)

Сообщение Sanechek » 08 янв 2017, 14:24

Название: Старец Паисий и я, стоящий вверх ногами
Год выхода: 2012
Жанр: Драма, биография
Режиссер: Александр Столяров
В ролях: Сергей Соколов, Матвей Столяров, Даниил Усачев, Александр Столяров, Альберт Арнаутов, Юрий Косин, Юлия Большинская, Руслан Сокольник, Михаил Болгов, Ирина Гавришева, Елена Лазович, Константин Семененко, Лина Будник

О фильме: "Исихия" - безмолвие (по-гречески). Монашество - путь к безмолвию. Наш герой - монах. У него есть прототип - старец Паисий, греческий монах, ныне святой, скончавшийся в конце ХХ века на Афоне. Другой монах - Христодул Агиорит - записал рассказы о нём. А мы написали сценарий православной комедии, в которой злу противостоят два монаха - старый и молодой. Это почти анекдоты. В них наш главный герой простоват (Швейк в рясе), и это при том, что настоящий старец Паисий сам написал три богословские книги. В нашем фильме герой действует - побеждает и попадает впросак, - но ни на миг не покидает его исихия. И всё видимое и слышимое, всё то, что происходит с ним, - случайные лучи огромной тайны. Второй наш герой - молодой монах, он всё время рядом со старцем. На глазах старца он сомневается и утверждается в чистоте любви. Последние дни в жизни старца и первые дни монастырской жизни молодого монаха охватывает наш фильм. Паисий умирает, молодой монах в огорчении покидает монастырь. Кажется, что всё кончилось. Но вдруг - чудо, опять чудо, их много в нашем фильме, зачастую они обыкновенны, как наша жизнь, но она и есть - чудо.



Выпущено: Россия, ТК Культура, студия "Фишка-фильм"
Продолжительность: 01:20:56
Перевод: не требуется

Файл
Кодек: х264
Качество: DVDRip-AVC
Видео: MPEG-4 AVC, 720x576@1024x576, 25 fps, 2222 Кбит/с
Звук: AC3, 2 ch, 256 Кбит/с

Общее
Уникальный идентификатор : 209671165174650080904365703818064061213 (0x9DBD329288E219079D5205EDBDD6631D)
Полное имя : D:\Старец Паисий и я, стоящий вверх ногами (2012).mkv
Формат : Matroska
Версия формата : Version 2
Размер файла : 1,40 Гбайт
Продолжительность : 1 ч. 20 м.
Общий поток : 2481 Кбит/сек
Дата кодирования : UTC 2017-01-06 20:17:06
Программа кодирования : mkvmerge v7.8.0 ('River Man') 32bit built on Apr 3 2015 12:11:22
Библиотека кодирования : libebml v1.3.1 + libmatroska v1.4.2

Видео
Идентификатор : 1
Формат : AVC
Формат/Информация : Advanced Video Codec
Профиль формата : High@L4.1
Параметр CABAC формата : Да
Параметр ReFrames формата : 12 кадров
Идентификатор кодека : V_MPEG4/ISO/AVC
Продолжительность : 1 ч. 20 м.
Битрейт : 2222 Кбит/сек
Ширина : 720 пикселей
Высота : 576 пикселей
Соотношение сторон : 16:9
Режим частоты кадров : Постоянный
Частота кадров : 25,000 кадров/сек
Стандарт вещания : PAL
Цветовое пространство : YUV
Субдискретизация насыщенности : 4:2:0
Битовая глубина : 8 бит
Тип развёртки : Прогрессивная
Бит/(Пиксели*Кадры) : 0.214
Размер потока : 1,23 Гбайт (88%)
Библиотека кодирования : x264 core 146 r2538 121396c
Настройки программы : cabac=1 / ref=12 / deblock=1:-2:-2 / analyse=0x3:0x133 / me=umh / subme=10 / psy=1 / psy_rd=1.05:0.10 / mixed_ref=1 / me_range=32 / chroma_me=1 / trellis=2 / 8x8dct=1 / cqm=0 / deadzone=21,11 / fast_pskip=0 / chroma_qp_offset=-3 / threads=3 / lookahead_threads=1 / sliced_threads=0 / nr=0 / decimate=0 / interlaced=0 / bluray_compat=0 / constrained_intra=0 / bframes=16 / b_pyramid=2 / b_adapt=2 / b_bias=0 / direct=3 / weightb=1 / open_gop=0 / weightp=2 / keyint=250 / keyint_min=25 / scenecut=40 / intra_refresh=0 / rc=2pass / mbtree=0 / bitrate=2222 / ratetol=1.0 / qcomp=0.63 / qpmin=0 / qpmax=69 / qpstep=4 / cplxblur=20.0 / qblur=0.5 / ip_ratio=1.25 / pb_ratio=1.30 / aq=1:1.00
Язык : Russian
Default : Да
Forced : Нет
Цветовой диапазон : Limited
Основные цвета : BT.601 PAL
Характеристики трансфера : BT.470 System B, BT.470 System G
Коэффициенты матрицы : BT.601

Аудио
Идентификатор : 2
Формат : AC-3
Формат/Информация : Audio Coding 3
Расширение режима : CM (complete main)
Параметр Endianness формата : Big
Идентификатор кодека : A_AC3
Продолжительность : 1 ч. 20 м.
Вид битрейта : Постоянный
Битрейт : 256 Кбит/сек
Каналы : 2 канала
Расположение каналов : Front: L R
Частота : 48,0 КГц
Частота кадров : 31,250 кадров/сек (1536 spf)
Битовая глубина : 16 бит
Метод сжатия : С потерями
Размер потока : 148 Мбайт (10%)
Язык : Russian
Default : Да
Forced : Нет
Аватара пользователя
Sanechek
Опытный Релизёр-Корсар
 
Месяцев на трекере: 2Месяцев на трекере: 2
 
Раздал: 162.61 ГБ
Зарегистрирован: 10 ноя 2016, 09:29
Откуда: СССР

  • Торрент
Автор: Sanechek Хэш: ---
Добавлен: 08 янв 2017, 14:24 Приватный: Нет (DHT включён)
Статус: Проверен
Размер: 1.4 ГБ (1 506 142 002 байт)
Изменил:
---
Скачали: 2 (Раздающих: 100%)
Причина:
---
Здоровье: 100%
Сидеров: 18 Личеров: 2
Скорость раздачи: 0 байт/сек Скорость скачивания: 0 байт/сек
Последний сидер: 3 часа 10 минут 24 секунды назад Последний личер: 3 часа 10 минут 24 секунды назад
Для скачивания торрента необходимо зарегистрироваться или войти на трекер.

Сообщение kwazar312 » 08 янв 2017, 15:52

Уважаемый Sanechek,большое спасибо за раздачу,для меня это новинка.
Аватара пользователя
kwazar312
Уважаемый Корсар
 
Месяцев на трекере: 5Месяцев на трекере: 5Месяцев на трекере: 5Месяцев на трекере: 5Месяцев на трекере: 5
 
Раздал: 1.06 ТБ
Зарегистрирован: 08 авг 2016, 06:50


Сообщение Sanechek » 08 янв 2017, 16:52

kwazar312 писал(а):Уважаемый Sanechek,большое спасибо за раздачу,для меня это новинка.

Пожалуйста, приятного просмотра!
Аватара пользователя
Sanechek
Опытный Релизёр-Корсар
 
Месяцев на трекере: 2Месяцев на трекере: 2
 
Раздал: 162.61 ГБ
Зарегистрирован: 10 ноя 2016, 09:29
Откуда: СССР



Вернуться в Наше современное кино

cron