logo
Международный русскоязычный
торрент-трекер
Menu

Doublon
Поделиться с друзьями: 
Голосуй за Корсар и получи 150 дублонов
Рейтинг торрент трекеров - UpTracker.ru

Старец Иоанн-Крестьянкин и его сподвижники (2016, Документальный, DVDRip-AVC) - KORSAR

Сообщение Sanechek » 14 окт 2017, 16:30

Название: Старец Иоанн (Крестьянкин) и его сподвижники
Год выхода: 2016
Жанр: Документальный

Описание: Фильм создан к десятилетию преставления духоносного старца архимандрита Иоанна (Крестьянкина) и повествует об основных этап его духовного пути, о тех сподвижниках, которые повлияли на вхождение отца Иоанна в меру возраста Христова.

Выпущено: Россия, Студия "Летописец"
Продолжительность: 00:50:04
Перевод: не требуется

Кодек: х264
Качество: DVDRip-AVC
Видео: MPEG-4 AVC, 700x576@995x576, 25 fps, 1694 Кбит/с
Звук: AC3, 2 ch, 192 Кбит/с

x264 [info]: frame I:378 Avg QP:15.82 size: 60376
x264 [info]: frame P:14279 Avg QP:16.31 size: 25219
x264 [info]: frame B:60463 Avg QP:18.41 size: 4420
==================================================================
Общее
Уникальный идентификатор : 230023955036918490652835340243041752357 (0xAD0D0096497C552C8E582BA39C079525)
Полное имя : D:\Старец Иоанн (Крестьянкин) и его сподвижники (2016) DVDRip-AVC. KORSAR.mkv
Формат : Matroska
Версия формата : Version 2
Размер файла : 689 Мбайт
Продолжительность : 50 м. 4 с.
Общий поток : 1925 Кбит/сек
Дата кодирования : UTC 2017-07-21 08:42:31
Программа кодирования : mkvmerge v7.8.0 ('River Man') 32bit built on Apr 3 2015 12:11:22
Библиотека кодирования : libebml v1.3.1 + libmatroska v1.4.2

Видео
Идентификатор : 1
Формат : AVC
Формат/Информация : Advanced Video Codec
Профиль формата : High@L4.1
Параметр CABAC формата : Да
Параметр ReFrames формата : 15 кадров
Идентификатор кодека : V_MPEG4/ISO/AVC
Продолжительность : 50 м. 4 с.
Битрейт : 1694 Кбит/сек
Ширина : 700 пикселей
Высота : 576 пикселей
Соотношение сторон : 1,727
Соотношение сторон в оригинале : 1,728
Режим частоты кадров : Постоянный
Частота кадров : 25,000 кадров/сек
Цветовое пространство : YUV
Субдискретизация насыщенности : 4:2:0
Битовая глубина : 8 бит
Тип развёртки : Прогрессивная
Бит/(Пиксели*Кадры) : 0.168
Размер потока : 607 Мбайт (88%)
Библиотека кодирования : x264 core 148 r2744kMod b97ae06
Настройки программы : cabac=1 / ref=15 / deblock=1:-2:-2 / analyse=0x3:0x133 / me=umh / subme=10 / psy=1 / fade_compensate=0.00 / psy_rd=1.05:0.10 / mixed_ref=1 / me_range=32 / chroma_me=1 / trellis=2 / 8x8dct=1 / cqm=0 / deadzone=21,11 / fast_pskip=1 / chroma_qp_offset=-3 / threads=6 / lookahead_threads=1 / sliced_threads=0 / nr=0 / decimate=1 / interlaced=0 / bluray_compat=0 / constrained_intra=0 / bframes=13 / b_pyramid=2 / b_adapt=2 / b_bias=0 / direct=1 / weightb=1 / open_gop=0 / weightp=2 / keyint=250 / keyint_min=25 / scenecut=40 / intra_refresh=0 / rc=crf / mbtree=0 / crf=16.7000 / qcomp=0.63 / qpmin=0 / qpmax=39 / qpstep=4 / ip_ratio=1.25 / pb_ratio=1.30 / aq=1:1.00
Язык : Russian
Default : Да
Forced : Нет
Цветовой диапазон : Limited
Основные цвета : BT.601 PAL
Характеристики трансфера : BT.470 System B, BT.470 System G
Коэффициенты матрицы : BT.601

Аудио
Идентификатор : 2
Формат : AC-3
Формат/Информация : Audio Coding 3
Параметр Endianness формата : Big
Идентификатор кодека : A_AC3
Продолжительность : 50 м. 4 с.
Вид битрейта : Постоянный
Битрейт : 192 Кбит/сек
Каналы : 2 канала
Расположение каналов : Front: L R
Частота : 48,0 КГц
Частота кадров : 31,250 кадров/сек (1536 spf)
Битовая глубина : 16 бит
Метод сжатия : С потерями
Размер потока : 68,8 Мбайт (10%)
Язык : Russian
ServiceKind/String : Complete Main
Default : Да
Forced : Нет


За постер спасибо: kisa1980
Аватара пользователя
Sanechek
Главный Модератор-Корсар
 
 

Награды: 18
За помощь проекту (1) За отличные раздачи и качество (8) За подробное оформление раздач (1) Верный Сид (6)
Раздачи группы KORSAR разрешено перезаливать спустя сутки после публикации
  • Торрент
Для скачивания торрента необходимо зарегистрироваться или войти на трекер.

Сообщение Sanechek » 14 окт 2017, 16:33

В фильме плавающее наполнение кадра.
Аватара пользователя
Sanechek
Главный Модератор-Корсар
 
 

Награды: 18
За помощь проекту (1) За отличные раздачи и качество (8) За подробное оформление раздач (1) Верный Сид (6)

Сообщение kisa1980 » 14 окт 2017, 16:50

Сегодня праздник вроде церковный, надо отвлечься от мерзких дел и пойти посмотреть старца. :yes:
Sanechek Спасибо. :hi: :-good:
Аватара пользователя
kisa1980
Главный помощник Администратора-Корсар
 
 

Награды: 43
За помощь проекту (6) Лучший по количеству кубков (3) За отличные раздачи и качество (14) За подробное оформление раздач (4) За отличные комментарии (4) Почётный форумчанин (2) Верный Сид (6) За участие в конкурсах (2)

Сообщение filbi1976 » 14 окт 2017, 22:32

Саша, спасибо! :hi:
Аватара пользователя
filbi1976
Администратор-Корсар
 
 

Награды: 45
За отличные раздачи и качество (33) Верный Сид (9) За участие в конкурсах (1)

Сообщение Korsar » 14 окт 2017, 23:05

Саня спасибо. :-good:
Если я не ошибаюсь, то Иоанн (Крестьянкин) один из последних старцев, спассшихся (иже во Святых) при жизни в современной России.
Обязательно посмотрю и еще раз спасибо. :senks2:

Боцман
Аватара пользователя
Korsar
Помощник Администратора-Корсар
 
 

Награды: 29
За помощь проекту (1) За отличные раздачи и качество (12) За подробное оформление раздач (1) За отличные комментарии (1) Верный Сид (10) За участие в конкурсах (2)

Сообщение Sanechek » 15 окт 2017, 07:13

Korsar писал(а):Саня спасибо. :-good:
Если я не ошибаюсь, то Иоанн (Крестьянкин) один из последних старцев, спассшихся (иже во Святых) при жизни в современной России.
Обязательно посмотрю и еще раз спасибо. :senks2:

Да, отец Иоанн один из последних старцев, только его ещё не канонизировали, но это вопрос времени.
ЗЫ. Всем пожалуйста! :hi:
Аватара пользователя
Sanechek
Главный Модератор-Корсар
 
 

Награды: 18
За помощь проекту (1) За отличные раздачи и качество (8) За подробное оформление раздач (1) Верный Сид (6)


Вернуться в Христианство



Uptime по данным Ping-Admin.Ru - сервиса мониторинга доступности сайтов
Рейтинг@Mail.ru