logo
Международный русскоязычный
торрент-трекер
Menu

Doublon
Поделиться с друзьями: 
Голосуй за Корсар и получи 400 дублонов
Рейтинг торрент трекеров - UpTracker.ru

Состояние сердца / Heart Condition (1990, Комедия, боевик, драма, WEB-DL 1080p) - KORSAR

Сообщение MZMA » 03 сен 2018, 00:44

Название: Состояние сердца
Оригинальное название: Heart Condition
Год выпуска: 1990
Выпущено: США, New Line Cinema
Жанр: Комедия, боевик, драма
Режиссер: Джеймс Д. Пэрриотт
В ролях: Боб Хоскинс, Дензел Вашингтон, Хлоя Уэбб, Роджер Э. Мосли, Ja'net DuBois, Алан Рачинс, Рэй Бэйкер, Джеффри Мик, Ева ЛаРю, Фрэнк Р. Роач

О фильме: Лос-анджелесский полицейский Джек Муни — расист по убеждению. Можете представить его недовольство, когда он, придя в себя после трансплантационной операции узнает, что ему пересажено сердце негра. И не простого негра, а личного врага Джека — погибшего накануне адвоката, связанного с преступным миром. И можете представить бешенство Джека, когда негр начинает «доставать» его даже после своей смерти, являясь к полицейскому в качестве призрака.



Продолжительность: 01:40:07
Перевод: Профессиональный многоголосый, профессиональный двухголосый, авторский
Субтитры: Русские (форсированные), английские
Навигация по главам: Есть

Качество: WEB-DL 1080p
Видео: MPEG-4 AVC, 11,5 Мбит/сек, 1920x1080, 23,976 кадра/сек
Аудио #1: AC3, 2 ch, 192 Кбит/сек | Русский, профессиональный (многоголосый закадровый) MVO
Аудио #2: AC3, 6 ch, 448 Кбит/сек | Русский, авторский (одноголосый закадровый) Алексей Михалёв
Аудио #3: AC3, 2 ch, 192 Кбит/сек | Русский, авторский (одноголосый закадровый) Михаил Иванов
Аудио #4: AC3, 6 ch, 448 Кбит/сек | Украинский, профессиональный (двухголосый закадровый) НТН
Аудио #5: EAC3, 6 ch, 640 Кбит/сек | Английский, оригинал

Сборка:


Общее
Уникальный идентификатор : 250669396147218443178459014215551781461 (0xBC952B6C1829B50D9975E7C335398A55)
Полное имя : Состояние.сердца.1990.WEB-DL.1080p.mkv
Формат : Matroska
Версия формата : Version 2
Размер файла : 9,54 Гбайт
Продолжительность : 1 ч. 40 м.
Режим общего битрейта : Переменный
Общий поток : 13,6 Мбит/сек
Дата кодирования : UTC 2018-09-02 21:14:54
Программа кодирования : mkvmerge v5.8.0 ('No Sleep / Pillow') built on Sep 2 2012 15:37:04
Библиотека кодирования : libebml v1.2.3 + libmatroska v1.3.0

Видео
Идентификатор : 1
Формат : AVC
Формат/Информация : Advanced Video Codec
Профиль формата : High@L4
Настройки формата : CABAC / 4 Ref Frames
Параметр CABAC формата : Да
Параметр RefFrames формата : 4 кадра
Идентификатор кодека : V_MPEG4/ISO/AVC
Продолжительность : 1 ч. 40 м.
Вид битрейта : Переменный
Битрейт : 11,5 Мбит/сек
Максимальный битрейт : 15,0 Мбит/сек
Ширина : 1920 пикселей
Высота : 1080 пикселей
Соотношение сторон : 16:9
Режим частоты кадров : Постоянный
Частота кадров : 23,976 (24000/1001) кадра/сек
Цветовое пространство : YUV
Субдискретизация насыщенности : 4:2:0
Битовая глубина : 8 бит
Тип развёртки : Прогрессивная
Бит/(Пиксели*Кадры) : 0.230
Размер потока : 8,01 Гбайт (84%)
Язык : English
По умолчанию : Да
Принудительно : Нет
Цветовой диапазон : Limited
Основные цвета : BT.709
Характеристики трансфера : BT.709
Коэффициенты матрицы : BT.709

Аудио #1
Идентификатор : 2
Формат : AC-3
Формат/Информация : Audio Coding 3
Идентификатор кодека : A_AC3
Продолжительность : 1 ч. 40 м.
Вид битрейта : Постоянный
Битрейт : 192 Кбит/сек
Каналы : 2 канала
Расположение каналов : Front: L R
Частота : 48,0 КГц
Частота кадров : 31,250 кадров/сек (1536 SPF)
Битовая глубина : 16 бит
Метод сжатия : С потерями
Размер потока : 137 Мбайт (1%)
Заголовок : MVO
Язык : Russian
По умолчанию : Да
Принудительно : Нет

Аудио #2
Идентификатор : 3
Формат : AC-3
Формат/Информация : Audio Coding 3
Идентификатор кодека : A_AC3
Продолжительность : 1 ч. 40 м.
Вид битрейта : Постоянный
Битрейт : 448 Кбит/сек
Каналы : 6 каналов
Расположение каналов : Front: L C R, Side: L R, LFE
Частота : 48,0 КГц
Частота кадров : 31,250 кадров/сек (1536 SPF)
Битовая глубина : 16 бит
Метод сжатия : С потерями
Размер потока : 321 Мбайт (3%)
Заголовок : AVO | А. Михалёв
Язык : Russian
По умолчанию : Нет
Принудительно : Нет

Аудио #3
Идентификатор : 4
Формат : AC-3
Формат/Информация : Audio Coding 3
Идентификатор кодека : A_AC3
Продолжительность : 1 ч. 40 м.
Вид битрейта : Постоянный
Битрейт : 192 Кбит/сек
Каналы : 2 канала
Расположение каналов : Front: L R
Частота : 48,0 КГц
Частота кадров : 31,250 кадров/сек (1536 SPF)
Битовая глубина : 16 бит
Метод сжатия : С потерями
Размер потока : 137 Мбайт (1%)
Заголовок : AVO | М. Иванов
Язык : Russian
По умолчанию : Нет
Принудительно : Нет

Аудио #4
Идентификатор : 5
Формат : AC-3
Формат/Информация : Audio Coding 3
Идентификатор кодека : A_AC3
Продолжительность : 1 ч. 40 м.
Вид битрейта : Постоянный
Битрейт : 448 Кбит/сек
Каналы : 6 каналов
Расположение каналов : Front: L C R, Side: L R, LFE
Частота : 48,0 КГц
Частота кадров : 31,250 кадров/сек (1536 SPF)
Битовая глубина : 16 бит
Метод сжатия : С потерями
Размер потока : 321 Мбайт (3%)
Заголовок : DVO | НТН
Язык : Ukrainian
По умолчанию : Нет
Принудительно : Нет

Аудио #5
Идентификатор : 6
Формат : E-AC-3
Формат/Информация : Enhanced Audio Coding 3
Идентификатор кодека : A_EAC3
Продолжительность : 1 ч. 40 м.
Вид битрейта : Постоянный
Битрейт : 640 Кбит/сек
Каналы : 6 каналов
Расположение каналов : Front: L C R, Side: L R, LFE
Частота : 48,0 КГц
Частота кадров : 187,500 кадров/сек (256 SPF)
Метод сжатия : С потерями
Размер потока : 458 Мбайт (5%)
Заголовок : Original
Язык : English
По умолчанию : Нет
Принудительно : Нет

Текст #1
Идентификатор : 7
Формат : UTF-8
Идентификатор кодека : S_TEXT/UTF8
Идентификатор кодека/Информация : UTF-8 Plain Text
Заголовок : Forced
Язык : Russian
По умолчанию : Нет
Принудительно : Нет

Текст #2
Идентификатор : 8
Формат : UTF-8
Идентификатор кодека : S_TEXT/UTF8
Идентификатор кодека/Информация : UTF-8 Plain Text
Язык : English
По умолчанию : Нет
Принудительно : Нет

Текст #3
Идентификатор : 9
Формат : UTF-8
Идентификатор кодека : S_TEXT/UTF8
Идентификатор кодека/Информация : UTF-8 Plain Text
Заголовок : SDH
Язык : English
По умолчанию : Нет
Принудительно : Нет

Меню
00:00:00.000 : en:01. Main Titles/Smile!
00:04:41.356 : en:02. Showing Some Initiative
00:11:10.428 : en:03. The N-Word And The P-Word
00:13:50.421 : en:04. Girl's Self-Defense
00:16:52.603 : en:05. Liquid Last Meal
00:19:23.704 : en:06. The Color Of A Heart
00:21:59.360 : en:07. New Life, New Rules
00:25:15.606 : en:08. The Cheeseburger Wars
00:29:34.698 : en:09. Ghost Prejudice
00:34:30.827 : en:10. "A Lot Of Money"
00:38:53.757 : en:11. Friends With Steadman
00:42:12.455 : en:12. Bowling Cash
00:46:13.696 : en:13. Moony's Makeover
00:50:37.460 : en:14. "I Always Listened"
00:53:30.466 : en:15. The Girl's Too Smart...
00:59:13.292 : en:16. ...And Wants To Play
01:02:01.793 : en:17. "Ask Her!"
01:06:39.704 : en:18. Suspended Again
01:09:00.445 : en:19. The Picture Develops
01:16:05.770 : en:20. Regecting His Heart
01:18:01.385 : en:21. Urgent Phone Calls
01:23:26.710 : en:22. Clearly A Setup
01:28:46.697 : en:23. Shooting It Out
01:34:06.349 : en:24. Conditions Of The Heart
01:36:19.482 : en:25. End Credits

• В первой дорожке есть места без перевода, на них даны форсированные субтитры.
• Исходник видео WEB-DL Amazon.
КУБКИ

СТАЖ

МЕДАЛИ
Награды:78

За помощь проекту (3) Лучший по количеству кубков (6) За отличные раздачи и качество (44) За подробное оформление раздач (11) Верный Сид (12)

Аватара пользователя
СССР
MZMA
Главный Модератор-Корсар
Раздачи группы KORSAR разрешено перезаливать спустя сутки после публикации
  • Торрент
Для скачивания торрента необходимо зарегистрироваться или войти на трекер.

Сообщение filbi1976 » 03 сен 2018, 02:07

Леонид, спасибо! :-drinks: :10 balov:
КУБКИ

СТАЖ

МЕДАЛИ
Награды:65

За помощь проекту (1) За отличные раздачи и качество (49) Верный Сид (12) За участие в конкурсах/играх (1)

Аватара пользователя
Тортуга
filbi1976
Администратор-Корсар


Вернуться в Зарубежное кино (1981-1990)



Uptime по данным Ping-Admin.Ru - сервиса мониторинга доступности сайтов
Рейтинг@Mail.ru Голосуйте за наш сайт в каталоге Rubo.Ru