logo
Международный русскоязычный
торрент-трекер
Menu

Doublon
Поделиться с друзьями: 
Голосуй за Корсар и получи 150 дублонов
Рейтинг торрент трекеров - UpTracker.ru

Соседка / The Perfect Neighbor (2005, Триллер, драма, WEB-DL 1080p) - KORSAR

Сообщение mzma » 12 июл 2018, 03:32

Название: Соседка
Оригинальное название: The Perfect Neighbor
Год выпуска: 2005
Выпущено: Канада, Outrage Productions Inc., S.V. Thrilling Movies Inc.
Жанр: Триллер, драма
Режиссер: Дуглас Джексон
В ролях: Барбара Нивен, Перри Кинг, Сьюзан Блэйкли, Линда Дарлоу, Лила Бата-Уолш, Анна Силк, Тори Хэммонд, Питер Майкл Диллон, Лоррэйн Анселл, Чак Шамата, Линда Смит, Алан Фоусет, Кэролайн Редкопп, Марк Камачо, Дайан Уайт, Анна-Мари Фрэнсис Лиа, Брент Доннелли, Рик Брамуччи, Дуглас Миллер, Мэдди Льюис, Имран Сайед

О фильме: Уильям и Джинни искренне обрадовались, когда у них появилась милая соседка. Но супруги не догадываются, что у нее есть страшная тайна. И сейчас, когда Донна охвачена новой страстью, она не остановится ни перед чем, чтобы добиться своего!



Продолжительность: 01:29:04
Перевод: Профессиональный многоголосый
Субтитры: Английские

Качество: WEB-DL 1080p
Видео: MPEG-4 AVC, 14,2 Мбит/сек, 1920x1080, 23,976 кадра/сек
Аудио #1: AC3, 2 ch, 192 Кбит/сек | Русский, профессиональный (многоголосый закадровый)
Аудио #2: EAC3, 2 ch, 224 Кбит/сек | Английский, оригинал

Сборка:


Общее
Уникальный идентификатор : 204955021669495388192007856809375375263 (0x9A30E6BEC7D8418AB8369246C8631F9F)
Полное имя : Соседка.2005.WEB-DL.1080p.mkv
Формат : Matroska
Версия формата : Version 2
Размер файла : 9,29 Гбайт
Продолжительность : 1 ч. 29 м.
Общий поток : 14,9 Мбит/сек
Дата кодирования : UTC 2018-07-11 23:40:41
Программа кодирования : mkvmerge v5.8.0 ('No Sleep / Pillow') built on Sep 2 2012 15:37:04
Библиотека кодирования : libebml v1.2.3 + libmatroska v1.3.0

Видео
Идентификатор : 1
Формат : AVC
Формат/Информация : Advanced Video Codec
Профиль формата : High@L4
Настройки формата : CABAC / 4 Ref Frames
Параметр CABAC формата : Да
Параметр RefFrames формата : 4 кадра
Идентификатор кодека : V_MPEG4/ISO/AVC
Продолжительность : 1 ч. 29 м.
Битрейт : 14,2 Мбит/сек
Ширина : 1920 пикселей
Высота : 1080 пикселей
Соотношение сторон : 16:9
Режим частоты кадров : Постоянный
Частота кадров : 23,976 (24000/1001) кадра/сек
Цветовое пространство : YUV
Субдискретизация насыщенности : 4:2:0
Битовая глубина : 8 бит
Тип развёртки : Прогрессивная
Бит/(Пиксели*Кадры) : 0.286
Размер потока : 8,85 Гбайт (95%)
Язык : English
Default : Да
Forced : Нет
Цветовой диапазон : Limited
Основные цвета : BT.709
Характеристики трансфера : BT.709
Коэффициенты матрицы : BT.709

Аудио #1
Идентификатор : 2
Формат : AC-3
Формат/Информация : Audio Coding 3
Идентификатор кодека : A_AC3
Продолжительность : 1 ч. 29 м.
Вид битрейта : Постоянный
Битрейт : 192 Кбит/сек
Каналы : 2 канала
Расположение каналов : Front: L R
Частота : 48,0 КГц
Частота кадров : 31,250 кадров/сек (1536 SPF)
Битовая глубина : 16 бит
Метод сжатия : С потерями
Размер потока : 122 Мбайт (1%)
Заголовок : MVO
Язык : Russian
По умолчанию : Да
Принудительно : Нет

Аудио #2
Идентификатор : 3
Формат : E-AC-3
Формат/Информация : Enhanced Audio Coding 3
Идентификатор кодека : A_EAC3
Продолжительность : 1 ч. 29 м.
Вид битрейта : Постоянный
Битрейт : 224 Кбит/сек
Каналы : 2 канала
Расположение каналов : Front: L R
Частота : 48,0 КГц
Частота кадров : 187,500 кадров/сек (256 SPF)
Метод сжатия : С потерями
Размер потока : 143 Мбайт (1%)
Заголовок : Original
Язык : English
По умолчанию : Нет
Принудительно : Нет

Текст #1
Идентификатор : 4
Формат : UTF-8
Идентификатор кодека : S_TEXT/UTF8
Идентификатор кодека/Информация : UTF-8 Plain Text
Язык : English
По умолчанию : Нет
Принудительно : Нет

Текст #2
Идентификатор : 5
Формат : UTF-8
Идентификатор кодека : S_TEXT/UTF8
Идентификатор кодека/Информация : UTF-8 Plain Text
Заголовок : SDH
Язык : English
По умолчанию : Нет
Принудительно : Нет

• Исходник видео WEB-DL Amazon.
Аватара пользователя
mzma
Главный Модератор-Корсар
 
 

Награды: 67
За помощь проекту (2) Лучший по количеству кубков (6) За отличные раздачи и качество (37) За подробное оформление раздач (10) Верный Сид (10)
Раздачи группы KORSAR разрешено перезаливать спустя сутки после публикации
  • Торрент
Для скачивания торрента необходимо зарегистрироваться или войти на трекер.

Вернуться в Зарубежное кино (2001-2010 / HD Video)



Uptime по данным Ping-Admin.Ru - сервиса мониторинга доступности сайтов
Рейтинг@Mail.ru