logo
Международный русскоязычный
торрент-трекер
Menu

Doublon
Поделиться с друзьями: 
Голосуй за Корсар и получи 400 дублонов
Рейтинг торрент трекеров - UpTracker.ru

Смотри по сторонам / Лучше берегись / Better Watch Out (2016, ужасы, триллер, BDRip-AVC) | iTunes

Сообщение kisa1980 » 11 июл 2018, 22:58

Название: Смотри по сторонам
Оригинальное название: Better Watch Out
Год выхода: 2016
Жанр: Ужасы, триллер
Страна: Австралия, США
Перевод: Дублированный | iTunes
Продолжительность: 01:28:50
Режиссер: Крис Пековер
В ролях: Оливия ДеДжонг, Леви Миллер, Эд Оксенбульд, Алекс Микич, Дакре Монтгомери, Патрик Варбертон, Вирджиния Мэдсен, Александра Матуско, Джорджия Холлэнд, Бо Андре и др.

О фильме: В доме на тихой пригородной улочке няня пытается защитить двенадцатилетнего мальчика от взломщиков, но вскоре обнаруживает, что это далеко не обыкновенное вторжение.



Качество: BDRip-AVC
Видео: MPEG-4 AVC, 1024x428, 2200 kbps, 24,000 fps
Аудио 1: Русский, AC3 5.1, 48 kHz, 384 kbps | iTunes
Аудио 2: Английский, AC3 5.1, 48 kHz, 640 kbps | Оригинал
Субтитры: Английские
Навигация по главам: Есть

General
Уникальный идентификатор : 177718329313782807334409858129019882586 (0x85B34E22307B8E9AB9201F72E1614C5A)
Полное имя : F:TorrentBetterWatchOut2016BDRipAVC.mkv
Формат : Matroska
Версия формата : Version 4 / Version 2
Размер файла : 2.00 GiB
Продолжительность : 1 h 28 min
Общий поток : 3 220 kb/s
Название фильма : Better.Watch.Out.2016.BDRemux.1080p-porvaliparus
Дата кодирования : UTC 2018-07-11 10:16:23
Программа кодирования : mkvmerge v9.5.0 ('Quiet Fire') 64bit
Библиотека кодирования : libebml v1.3.4 + libmatroska v1.4.5

Video
Идентификатор : 1
Формат : AVC
Формат/Информация : Advanced Video Codec
Профиль формата : High@L4.1
Настройки формата : CABAC / 10 Ref Frames
Параметр CABAC формата : Yes
Параметр RefFrames формата : 10 frames
Идентификатор кодека : V_MPEG4/ISO/AVC
Продолжительность : 1 h 28 min
Битрейт : 2 200 kb/s
Ширина : 1 024 pixels
Высота : 428 pixels
Соотношение сторон : 2.40:1
Режим частоты кадров : Constant
Частота кадров : 24.000 FPS
Цветовое пространство : YUV
Субдискретизация насыщенности : 4:2:0
Битовая глубина : 8 bits
Тип развёртки : Progressive
Бит/(Пиксели*Кадры) : 0.209
Размер потока : 1.36 GiB (68%)
Библиотека кодирования : x264 core 155 r2901M 7d0ff22
Настройки программы : cabac=1 / ref=10 / deblock=1:-2:-2 / analyse=0x3:0x133 / me=umh / subme=11 / psy=1 / psy_rd=1.00:0.00 / mixed_ref=1 / me_range=48 / chroma_me=1 / trellis=2 / 8x8dct=1 / cqm=0 / deadzone=21,11 / fast_pskip=0 / chroma_qp_offset=-2 / threads=5 / lookahead_threads=1 / sliced_threads=0 / nr=0 / decimate=0 / interlaced=0 / bluray_compat=0 / constrained_intra=0 / bframes=10 / b_pyramid=2 / b_adapt=2 / b_bias=0 / direct=3 / weightb=1 / open_gop=0 / weightp=2 / keyint=240 / keyint_min=24 / scenecut=40 / intra_refresh=0 / rc_lookahead=120 / rc=2pass / mbtree=0 / bitrate=2200 / ratetol=1.0 / qcomp=0.70 / qpmin=0 / qpmax=69 / qpstep=4 / cplxblur=20.0 / qblur=0.5 / vbv_maxrate=62500 / vbv_bufsize=78125 / nal_hrd=none / filler=0 / ip_ratio=1.40 / pb_ratio=1.30 / aq=3:0.80
Default : Yes
Forced : No

Audio #1
Идентификатор : 2
Формат : AC-3
Формат/Информация : Audio Coding 3
Идентификатор кодека : A_AC3
Продолжительность : 1 h 28 min
Вид битрейта : Constant
Битрейт : 384 kb/s
Каналы : 6 channels
Расположение каналов : Front: L C R, Side: L R, LFE
Частота : 48.0 kHz
Частота кадров : 31.250 FPS (1536 SPF)
Битовая глубина : 16 bits
Метод сжатия : Lossy
Размер потока : 244 MiB (12%)
Язык : Russian
Default : Yes
Forced : No

Audio #2
Идентификатор : 3
Формат : AC-3
Формат/Информация : Audio Coding 3
Идентификатор кодека : A_AC3
Продолжительность : 1 h 28 min
Вид битрейта : Constant
Битрейт : 640 kb/s
Каналы : 6 channels
Расположение каналов : Front: L C R, Side: L R, LFE
Частота : 48.0 kHz
Частота кадров : 31.250 FPS (1536 SPF)
Битовая глубина : 16 bits
Метод сжатия : Lossy
Размер потока : 407 MiB (20%)
Язык : English
Default : No
Forced : No

Text
Идентификатор : 4
Формат : UTF-8
Идентификатор кодека : S_TEXT/UTF8
Идентификатор кодека/Информация : UTF-8 Plain Text
Продолжительность : 1 h 25 min
Битрейт : 55 b/s
ElementCount : 1306
Размер потока : 34.6 KiB (0%)
Язык : English
Default : No
Forced : No

Menu
00:00:00.000 : :Chapter 1
00:06:42.500 : :Chapter 2
00:11:53.000 : :Chapter 3
00:21:24.000 : :Chapter 4
00:29:56.083 : :Chapter 5
00:33:32.083 : :Chapter 6
00:44:51.708 : :Chapter 7
00:55:02.625 : :Chapter 8
01:02:11.542 : :Chapter 9
01:09:28.292 : :Chapter 10
01:17:59.000 : :Chapter 11
01:23:42.875 : :Chapter 12

КУБКИ

СТАЖ

МЕДАЛИ
Награды:50

За помощь проекту (7) Лучший по количеству кубков (3) За отличные раздачи и качество (16) За подробное оформление раздач (4) За отличные комментарии (4) Почётный форумчанин (3) Верный Сид (9) За участие в конкурсах/играх (2)

Аватара пользователя
Тортуга
kisa1980
Главный помощник Администратора-Корсар
  • Торрент
Для скачивания торрента необходимо зарегистрироваться или войти на трекер.

Вернуться в Зарубежное кино (2011-2018)



Uptime по данным Ping-Admin.Ru - сервиса мониторинга доступности сайтов
Рейтинг@Mail.ru Голосуйте за наш сайт в каталоге Rubo.Ru