logo
Международный русскоязычный
торрент-трекер
Menu

Doublon
Поделиться с друзьями: 
Голосуй за Корсар и получи 400 дублонов
Рейтинг торрент трекеров - UpTracker.ru

Смотри по сторонам / Лучше берегись / Better Watch Out (2016, ужасы, триллер, BDRemux 1080р) | iTunes

Сообщение kisa1980 » 12 июл 2018, 12:44

Название: Смотри по сторонам
Оригинальное название: Better Watch Out
Год выхода: 2016
Жанр: Ужасы, триллер
Страна: Австралия, США
Продолжительность: 01:28:50
Перевод 1: Профессиональный (дублированный) iTunes
Перевод 2: Любительский (одноголосый закадровый) BadBajo
Режиссер: Крис Пековер
В ролях: Патрик Варбертон, Вирджиния Мэдсен, Дакре Монтгомери, Оливия ДеДжонг, Леви Миллер, Эд Оксенбульд, Брендан Клиркин, Тара Борг, Алекс Микич, Триша Мэри Хеннэси и др.

Описание: В доме на тихой пригородной улочке няня пытается защитить двенадцатилетнего мальчика от взломщиков, но вскоре обнаруживает, что это далеко не обыкновенное вторжение.



Качество: BDRemux 1080р
Видео: MPEG-4 AVC / 1920x1080 / 16:9 / 24.0 fps / 19741 kbps / High@L4.1
Аудио 1: Rus / AC3 / 48.0 KHz / 5.1 / 384 kbps / iTunes
Аудио 2: Rus / AC3 / 48.0 KHz / 5.1 / 384 kbps / BadBajo
Аудио 3 Eng / DTS-HD MA / 48.0 KHz / 5.1 / 2190 kbps / 16 bit (DTS Core 48.0 KHz / 5.1 / 1509 kbps / 16 bit)
Субтитры: Английские

Общее
Уникальный идентификатор : 10163184416308494023898893611991430022 (0x7A55BADBCBB71F30692602C9859F386)
Полное имя : Better.Watch.Out.2016 BDRemux.1080p.mkv
Формат : Matroska
Версия формата : Version 4 / Version 2
Размер файла : 14,1 Гбайт
Продолжительность : 1 ч. 28 м.
Режим общего битрейта : Переменный
Общий поток : 22,7 Мбит/сек
Название фильма : Better.Watch.Out.2016 BDRemux.1080p-porvaliparus
Дата кодирования : UTC 2018-07-12 05:05:15
Программа кодирования : mkvmerge v24.0.0 ('Beyond The Pale') 64-bit
Библиотека кодирования : libebml v1.3.6 + libmatroska v1.4.9

Видео
Идентификатор : 1
Формат : AVC
Формат/Информация : Advanced Video Codec
Профиль формата : High@L4.1
Настройки формата : CABAC / 4 Ref Frames
Параметр CABAC формата : Да
Параметр RefFrames формата : 4 кадра
Идентификатор кодека : V_MPEG4/ISO/AVC
Продолжительность : 1 ч. 28 м.
Вид битрейта : Переменный
Битрейт : 19,8 Мбит/сек
Максимальный битрейт : 25,0 Мбит/сек
Ширина : 1920 пикселей
Высота : 1080 пикселей
Соотношение сторон : 16:9
Режим частоты кадров : Постоянный
Частота кадров : 24,000 кадра/сек
Цветовое пространство : YUV
Субдискретизация насыщенности : 4:2:0
Битовая глубина : 8 бит
Тип развёртки : Прогрессивная
Бит/(Пиксели*Кадры) : 0.397
Размер потока : 12,3 Гбайт (87%)
Заголовок : Better.Watch.Out.2016 BDRemux.1080p
Default : Да
Forced : Нет

Аудио #1
Идентификатор : 2
Формат : AC-3
Формат/Информация : Audio Coding 3
Идентификатор кодека : A_AC3
Продолжительность : 1 ч. 28 м.
Вид битрейта : Постоянный
Битрейт : 384 Кбит/сек
Каналы : 6 каналов
Расположение каналов : Front: L C R, Side: L R, LFE
Частота : 48,0 КГц
Частота кадров : 31,250 кадров/сек (1536 SPF)
Битовая глубина : 16 бит
Метод сжатия : С потерями
Размер потока : 244 Мбайт (2%)
Заголовок : Dub [iTunes]
Язык : Russian
Default : Да
Forced : Нет

Аудио #2
Идентификатор : 3
Формат : AC-3
Формат/Информация : Audio Coding 3
Идентификатор кодека : A_AC3
Продолжительность : 1 ч. 28 м.
Вид битрейта : Постоянный
Битрейт : 384 Кбит/сек
Каналы : 6 каналов
Расположение каналов : Front: L C R, Side: L R, LFE
Частота : 48,0 КГц
Частота кадров : 31,250 кадров/сек (1536 SPF)
Битовая глубина : 16 бит
Метод сжатия : С потерями
Размер потока : 244 Мбайт (2%)
Заголовок : VO [BadBajo]
Язык : Russian
Default : Нет
Forced : Нет

Аудио #3
Идентификатор : 4
Формат : DTS
Формат/Информация : Digital Theater Systems
Профиль формата : MA / Core
Идентификатор кодека : A_DTS
Продолжительность : 1 ч. 28 м.
Вид битрейта : Переменный / Постоянный
Битрейт : 2190 Кбит/сек / 1509 Кбит/сек
Каналы : 6 каналов
Расположение каналов : Front: L C R, Side: L R, LFE
Частота : 48,0 КГц
Частота кадров : 93,750 кадра/сек (512 SPF)
Битовая глубина : 16 бит
Метод сжатия : Без потерь / Lossy
Размер потока : 1,36 Гбайт (10%)
Язык : English
Default : Нет
Forced : Нет

Текст
Идентификатор : 5
Формат : UTF-8
Идентификатор кодека : S_TEXT/UTF8
Идентификатор кодека/Информация : UTF-8 Plain Text
Продолжительность : 1 ч. 25 м.
Битрейт : 55 бит/сек
ElementCount : 1306
Размер потока : 34,6 Кбайт (0%)
Язык : English
Default : Нет
Forced : Нет

Меню
00:00:00.000 : en:Chapter 1
00:06:42.500 : en:Chapter 2
00:11:53.000 : en:Chapter 3
00:21:24.000 : en:Chapter 4
00:29:56.083 : en:Chapter 5
00:33:32.083 : en:Chapter 6
00:44:51.708 : en:Chapter 7
00:55:02.625 : en:Chapter 8
01:02:11.542 : en:Chapter 9
01:09:28.292 : en:Chapter 10
01:17:59.000 : en:Chapter 11
01:23:42.875 : en:Chapter 12
КУБКИ

СТАЖ

МЕДАЛИ
Награды:50

За помощь проекту (7) Лучший по количеству кубков (3) За отличные раздачи и качество (16) За подробное оформление раздач (4) За отличные комментарии (4) Почётный форумчанин (3) Верный Сид (9) За участие в конкурсах/играх (2)

Аватара пользователя
Тортуга
kisa1980
Главный помощник Администратора-Корсар
  • Торрент
Для скачивания торрента необходимо зарегистрироваться или войти на трекер.

Вернуться в Зарубежное кино (2011-2018 / HD Video)



Uptime по данным Ping-Admin.Ru - сервиса мониторинга доступности сайтов
Рейтинг@Mail.ru Голосуйте за наш сайт в каталоге Rubo.Ru