logo
Международный русскоязычный
торрент-трекер
Menu
Doublon
Поделиться с друзьями: 
Голосуй за Корсар и получи 400 дублонов
Рейтинг торрент трекеров - UpTracker.ru

Смоки и Бандит / Smokey And The Bandit (1977, Боевик, комедия, BDRip 1080p)

Сообщение Korsar » 11 янв 2019, 10:14

Смоки и Бандит / Smokey And The Bandit


Год выпуска: 1977
Страна: США
Жанр: Боевик, комедия
Продолжительность: 01:35:49

Перевод: Профессиональный (многоголосый, закадровый), авторский (одноголосый) x 4
Субтитры: Русские (3 вида)

Режиссер: Хэл Нидэм

В ролях: Бёрт Рейнолдс, Салли Филд, Джерри Рид, Майк Генри, Пол Уильямс, Пэт МакКормик, Элфи Уайз, Джордж Рейнольдс, Макон МакКалман, Линда МакКлюр, Сьюзэн МакИвер, Лаура Лайзер Соммерс, Майкл Манн, Ламар Джексон, Ронни Гэй, Джекки Глисон

Описание: Парочка водителей, Бандит и Снеговик, берутся перевезти грузовик контрабандного пива из Тексарканы в Атланту за 48 часов. Схема проста: пока Бандит отвлекает полицейских, Снеговик спокойно на грузовике едет за ним. В то же время шериф Бьюфорд Джастис решает во что бы то не стало поймать Бандита, так как невеста его сына сбежала со свадьбы и села к Бандиту в машину…

Оскар, 1978 год
Номинации:
Лучший монтаж

Золотой глобус, 1978 год
Номинации:
Лучшая женская роль (комедия или мюзикл) (Салли Филд)

Бюджет: $ 4300000
Сборы: $ 300000000



Качество: BDRip 1080p
Формат: MKV
Видео кодек: x264
Аудио кодек: AC3
Видео: MPEG4 Video (H264), 1920x1040, 23.976 fps, 12.0 Mbps
Аудио #1: Русский, Dolby AC3, 48000 Hz, 2ch, 192 Kbps - Многоголосый, BD EUR
Аудио #2: Русский, Dolby AC3, 48000 Hz, 2ch, 192 Kbps - Одноголосый, А. Михалёв
Аудио #3: Русский, Dolby AC3, 48000 Hz, 2ch, 192 Kbps - Одноголосый, Г. Либергал
Аудио #4: Русский, Dolby AC3, 48000 Hz, 2ch, 192 Kbps - Одноголосый, Л. Володарский
Аудио #5: Русский, Dolby AC3, 48000 Hz, 2ch, 192 Kbps - Одноголосый, В. Королёв
Аудио #6: Английский, Dolby AC3, 48000 Hz, 6ch, 384 kbps

Сэмпл

General
Unique ID : 184780103288704022804442987038719901746 (0x8B035A78C129EACAA303CACFB2D08032)
Complete name : D:Torrent21977.Smokey.And.Bandit.likko.mkv
Format : Matroska
Format version : Version 4
File size : 8.93 GiB
Duration : 1 h 35 min
Overall bit rate : 13.3 Mb/s
Movie name : 1977 Смоки и Бандит /likko
Encoded date : UTC 2019-01-09 15:17:12
Writing application : mkvmerge v8.3.0 ('Over the Horizon') 64bit
Writing library : libebml v1.3.1 + libmatroska v1.4.2

Video
ID : 1
Format : AVC
Format/Info : Advanced Video Codec
Format profile : High@L4.1
Format settings : CABAC / 4 Ref Frames
Format settings, CABAC : Yes
Format settings, ReFrames : 4 frames
Codec ID : V_MPEG4/ISO/AVC
Duration : 1 h 35 min
Bit rate : 12.0 Mb/s
Width : 1 920 pixels
Height : 1 040 pixels
Display aspect ratio : 1.85:1
Frame rate mode : Constant
Frame rate : 23.976 (24000/1001) FPS
Color space : YUV
Chroma subsampling : 4:2:0
Bit depth : 8 bits
Scan type : Progressive
Bits/(Pixel*Frame) : 0.251
Stream size : 8.03 GiB (90%)
Title : 1977 Смоки и Бандит
Writing library : x264 core 148 r2638 7599210
Encoding settings : cabac=1 / ref=4 / deblock=1:-1:-1 / analyse=0x3:0x133 / me=umh / subme=11 / psy=1 / psy_rd=1.00:0.15 / mixed_ref=1 / me_range=48 / chroma_me=1 / trellis=2 / 8x8dct=1 / cqm=0 / deadzone=21,11 / fast_pskip=0 / chroma_qp_offset=-3 / threads=18 / lookahead_threads=4 / sliced_threads=0 / nr=0 / decimate=1 / interlaced=0 / bluray_compat=0 / constrained_intra=0 / bframes=12 / b_pyramid=2 / b_adapt=2 / b_bias=0 / direct=3 / weightb=1 / open_gop=0 / weightp=2 / keyint=250 / keyint_min=23 / scenecut=40 / intra_refresh=0 / rc=2pass / mbtree=0 / bitrate=12000 / ratetol=1.0 / qcomp=0.60 / qpmin=0 / qpmax=69 / qpstep=4 / cplxblur=20.0 / qblur=0.5 / ip_ratio=1.40 / pb_ratio=1.30 / aq=2:1.00
Language : English
Default : Yes
Forced : No

Audio #1
ID : 2
Format : AC-3
Format/Info : Audio Coding 3
Commercial name : Dolby Digital
Codec ID : A_AC3
Duration : 1 h 35 min
Bit rate mode : Constant
Bit rate : 192 kb/s
Channel(s) : 2 channels
Channel layout : L R
Sampling rate : 48.0 kHz
Frame rate : 31.250 FPS (1536 SPF)
Bit depth : 16 bits
Compression mode : Lossy
Stream size : 132 MiB (1%)
Title : Многоголосый, BD EUR
Language : Russian
Service kind : Complete Main
Default : Yes
Forced : No

Audio #2
ID : 3
Format : AC-3
Format/Info : Audio Coding 3
Commercial name : Dolby Digital
Codec ID : A_AC3
Duration : 1 h 35 min
Bit rate mode : Constant
Bit rate : 192 kb/s
Channel(s) : 2 channels
Channel layout : L R
Sampling rate : 48.0 kHz
Frame rate : 31.250 FPS (1536 SPF)
Bit depth : 16 bits
Compression mode : Lossy
Stream size : 132 MiB (1%)
Title : Одноголосый, А. Михалёв
Language : Russian
Service kind : Complete Main
Default : No
Forced : No

Audio #3
ID : 4
Format : AC-3
Format/Info : Audio Coding 3
Commercial name : Dolby Digital
Codec ID : A_AC3
Duration : 1 h 35 min
Bit rate mode : Constant
Bit rate : 192 kb/s
Channel(s) : 2 channels
Channel layout : L R
Sampling rate : 48.0 kHz
Frame rate : 31.250 FPS (1536 SPF)
Bit depth : 16 bits
Compression mode : Lossy
Stream size : 132 MiB (1%)
Title : Одноголосый, Г. Либергал
Language : Russian
Service kind : Complete Main
Default : No
Forced : No

Audio #4
ID : 5
Format : AC-3
Format/Info : Audio Coding 3
Commercial name : Dolby Digital
Codec ID : A_AC3
Duration : 1 h 35 min
Bit rate mode : Constant
Bit rate : 192 kb/s
Channel(s) : 2 channels
Channel layout : L R
Sampling rate : 48.0 kHz
Frame rate : 31.250 FPS (1536 SPF)
Bit depth : 16 bits
Compression mode : Lossy
Stream size : 132 MiB (1%)
Title : Одноголосый, Л. Володарский
Language : Russian
Service kind : Complete Main
Default : No
Forced : No

Audio #5
ID : 6
Format : AC-3
Format/Info : Audio Coding 3
Commercial name : Dolby Digital
Codec ID : A_AC3
Duration : 1 h 35 min
Bit rate mode : Constant
Bit rate : 192 kb/s
Channel(s) : 2 channels
Channel layout : L R
Sampling rate : 48.0 kHz
Frame rate : 31.250 FPS (1536 SPF)
Bit depth : 16 bits
Compression mode : Lossy
Stream size : 132 MiB (1%)
Title : Одноголосый, В. Королёв
Language : Russian
Service kind : Complete Main
Default : No
Forced : No

Audio #6
ID : 7
Format : AC-3
Format/Info : Audio Coding 3
Commercial name : Dolby Digital
Codec ID : A_AC3
Duration : 1 h 35 min
Bit rate mode : Constant
Bit rate : 384 kb/s
Channel(s) : 6 channels
Channel layout : L R C LFE Ls Rs
Sampling rate : 48.0 kHz
Frame rate : 31.250 FPS (1536 SPF)
Bit depth : 16 bits
Compression mode : Lossy
Stream size : 263 MiB (3%)
Language : English
Service kind : Complete Main
Default : No
Forced : No

Text #1
ID : 8
Format : UTF-8
Codec ID : S_TEXT/UTF8
Codec ID/Info : UTF-8 Plain Text
Duration : 1 h 33 min
Bit rate : 113 b/s
Count of elements : 1031
Stream size : 77.8 KiB (0%)
Title : 1
Language : Russian
Default : No
Forced : No

Text #2
ID : 9
Format : UTF-8
Codec ID : S_TEXT/UTF8
Codec ID/Info : UTF-8 Plain Text
Duration : 1 h 34 min
Bit rate : 118 b/s
Count of elements : 1229
Stream size : 82.1 KiB (0%)
Title : 2
Language : Russian
Default : No
Forced : No

Text #3
ID : 10
Format : UTF-8
Codec ID : S_TEXT/UTF8
Codec ID/Info : UTF-8 Plain Text
Duration : 1 h 34 min
Bit rate : 118 b/s
Count of elements : 1228
Stream size : 82.1 KiB (0%)
Title : 3
Language : Russian
Default : No
Forced : No

Menu
00:00:00.000 : en:Chapter 01
00:04:56.921 : en:Chapter 02
00:07:27.697 : en:Chapter 03
00:18:01.830 : en:Chapter 04
00:21:15.899 : en:Chapter 05
00:23:55.809 : en:Chapter 06
00:32:15.725 : en:Chapter 07
00:41:08.674 : en:Chapter 08
00:43:42.411 : en:Chapter 09
00:53:48.600 : en:Chapter 10
01:07:01.142 : en:Chapter 11
01:12:06.280 : en:Chapter 12
01:19:11.121 : en:Chapter 13
01:24:39.616 : en:Chapter 14
01:27:28.326 : en:Chapter 15
01:32:17.156 : en:Chapter 16




likko
КУБКИ

СТАЖ

МЕДАЛИ
Награды:42

За помощь проекту (2) Лучший по количеству кубков (2) За отличные раздачи и качество (14) За подробное оформление раздач (1) За отличные комментарии (2) Почётный форумчанин (1) Верный Сид (15) За участие в конкурсах/играх (2) C наступающим Новым Годом!!! (1)

Аватара пользователя
СССР
Korsar
Главный Модератор-Корсар
  • Торрент
Для скачивания торрента необходимо зарегистрироваться или войти на трекер.

Вернуться в Классика зарубежного кино (фильмы до 1980 года / HD Video)



cron
Uptime по данным Ping-Admin.Ru - сервиса мониторинга доступности сайтов
Рейтинг@Mail.ru Голосуйте за наш сайт в каталоге Rubo.Ru