logo
Международный русскоязычный
торрент-трекер
Menu

Doublon
Поделиться с друзьями: 
Голосуй за Корсар и получи 400 дублонов
Рейтинг торрент трекеров - UpTracker.ru

Смертельное оружие: Квадрология / Lethal Weapon: Collection (1987, 1989, 1992, 1998, боевик, триллер, комедия, криминал, BDRip 720p)

Сообщение Gogen » 27 окт 2016, 14:21

Смертельное оружие: Квадрология


Смертельное оружие / Lethal Weapon

«Two Cops. Glover carries a weapon.....
Gibson is one. He's the only L.A cop registered as a Lethal Weapon»

Страна: США
Жанр: боевик, триллер, комедия, криминал
Год выпуска: 1987
Продолжительность: 01:49:37
Перевод: Профессиональный (дублированный) - Blu-Ray CEE
Перевод 2: Профессиональный (дублированный) - Варус Видео
Перевод 3: Профессиональный (многоголосый) - Киномания
Перевод 4: Профессиональный (многоголосый) - Премьер Видео
Перевод 5: Профессиональный (многоголосый) - ОРТ
Перевод 6: Профессиональный (многоголосый) - РТР
Перевод 7: Авторский одноголосый - Гаврилов
Перевод 8: Авторский одноголосый - Гаврилов поздн.
Перевод 9: Авторский одноголосый - Живов
Перевод 10: Авторский одноголосый - Михалёв
Перевод 11: Авторский одноголосый - Володарский
Перевод 12: Авторский одноголосый - Горчаков
Перевод 13: Авторский одноголосый - Либергал
Оригинальная аудиодорожка: английский
Режиссер: Ричард Доннер / Richard Donner
В ролях: Мэл Гибсон, Дэнни Гловер, Гэри Бьюзи, Митч Райан, Том Аткинс, Дарлен Лав, Трэйси Вульф, Джеки Суонсон, Дэймон Хайнс, Эбони Смит
Описание: Обаяние этого вечного приключенческого сюжета о паре полицейских — в великолепной игре Гибсона и Гловера. Первый — слегка чокнутый смельчак Риггз, которому из-за его легендарного вьетнамского прошлого и не менее легендарного настоящего дали уважительную кличку «смертельное оружие». Его чернокожий напарник Мертаф — человек куда более земной, обремененный семьей и предрассудками.
Тип релиза: BDRip 720p
Контейнер: MKV

Видео: MPEG-4 AVC, 5430 Кбит/с, 1280x720, 23,976 fps
Аудио: АС3, 6 ch, 640 Кбит/с - Blu-Ray CEE
Аудио 2: АС3, 48 КГц, 2 ch, 256 Кбит/с - Варус Видео
Аудио 3: АС3, 48 КГц, 6 ch, 384 Кбит/с - Киномания
Аудио 4: АС3, 48 КГц, 6 ch, 448 Кбит/с - Премьер Видео
Аудио 5: АС3, 48 КГц, 2 ch, 192 Кбит/с - ОРТ
Аудио 6: АС3, 48 КГц, 2 ch, 192 Кбит/с - РТР
Аудио 7: АС3, 48 КГц, 6 ch, 448 Кбит/с - Гаврилов
Аудио 8: АС3, 48 КГц, 6 ch, 448 Кбит/с - Гаврилов поздн.
Аудио 9: АС3, 48 КГц, 6 ch, 448 Кбит/с - Живов
Аудио 10: АС3, 48 КГц, 6 ch, 448 Кбит/с - Михалёв
Аудио 11: АС3, 48 КГц, 6 ch, 448 Кбит/с - Володарский
Аудио 12: АС3, 48 КГц, 6 ch, 448 Кбит/с - Горчаков
Аудио 13: АС3, 48 КГц, 6 ch, 448 Кбит/с - Либергал
Аудио 14: DTS, 48 КГц, 6 ch, 1510 Кбит/с - Оригинал
Субтитры:: Русские, Английские
Формат субтитров: softsub (SRT)
• Франко Джеффирелли решил предложить Мэлу Гибсону роль Гамлета, после того как увидел сцену, где Риггз пытается совершить самоубийство.
• Фильм посвящен памяти Дара Робинсона, известнейшего каскадера, погибшего в автомобильной аварии во время пост-продакшна картины.
• Для фильма были сняты альтернативные начало и концовка, которые можно посмотреть на DVD «Смертельное оружие 4». Изначально фильм должен был начинаться со сцены, в которой Мартин Риггз пьёт в одиночестве в каком-то баре, где к нему пристают несколько отморозков, требующие его деньги. Риггз говорит, что все свои деньги он хранит в банке, а также говорит парням отстать от него. Конечно, они его не слушаются, и Риггз жестоко избивает их. Бармен дает Риггзу бесплатную бутылку спиртного и говорит, чтобы он больше здесь не появлялся. Уже по ходу съёмок Ричард Доннер решил представить Риггза в более дружелюбной манере и снял сцену, где Мартин просыпается в своем трейлере. Альтернативная концовка представляла собой сцену, где Мёрто говорит Риггзу, что подумывает о пенсии, но Мартин отговаривает его от принятия данного решения.
• В одной из сцен фильма на заднем плане можно заметить кинотеатр, где идут «Пропащие ребята» (1987), продюсером которых был Ричард Доннер.
• В сцене, где героиня Джеки Суонсон падает с высокоэтажного здания, Джеки отказалось от услуг дублеров и сама исполнила трюк.
• Количество убитых: 26.
• По словам Гари Бьюзи, он получил роль Джошуа, потому что продюсеры искали актера, способного достоверно изобразить реальную угрозу для персонажа Мэла Гибсона. Бьюзи признает «Смертельное оружие» фильмом, придавшим второе дыхание для его карьеры.
• Леонарду Нимому предлагали поставить фильм, но он отказался, предпочтя поработать над «Тремя мужчинами и младенцем» (1987).
• В фильме, Роджеру Мёрто около 50. На момент съёмок Дэнни Гловеру было 40.
• Согласно статье в июньском номере 2007 года «Vanity Fair», кандидатура Брюса Уиллиса рассматривалась на роль Риггза.
• Режиссёрский вариант фильма имеет хронометраж 117 минут.
Complete name : \Smertelnoe.oruzhie.1.1987.x264.BDRip.720p.mkv
Format : Matroska
File size : 9.34 GiB
Duration : 1h 49mn
Overall bit rate : 12.2 Mbps

Encoded date : UTC 2010-11-27 19:13:40
Writing application : mkvmerge v3.4.0 ('Rapunzel') ������ �� May 15 2010 09:38:20
Writing library : libebml v0.8.0 + libmatroska v0.9.0

Video
ID : 1
Format : AVC
Format/Info : Advanced Video Codec
Format profile : High@L4.1
Format settings, CABAC : Yes
Format settings, ReFrames : 9 frames
Muxing mode : Container profile=Unknown@4.1
Codec ID : V_MPEG4/ISO/AVC
Duration : 1h 49mn
Bit rate : 5 430 Kbps
Width : 1 280 pixels
Height : 720 pixels
Display aspect ratio : 16:9
Frame rate : 23.976 fps
Color space : YUV
Chroma subsampling : 4:2:0
Bit depth : 8 bits
Scan type : Progressive
Bits/(Pixel*Frame) : 0.246
Stream size : 3.98 GiB (43%)
Writing library : x264 core 107 r1745+311 2317302
Encoding settings : cabac=1 / ref=9 / deblock=1:-3:-3 / analyse=0x3:0x133 / me=umh / subme=9 / psy=1 / fade_compensate=0.00 / psy_rd=1.00:0.00 / mixed_ref=1 / me_range=32 / chroma_me=1 / trellis=2 / 8x8dct=1 / cqm=0 / deadzone=21,11 / fast_pskip=0 / chroma_qp_offset=-2 / threads=3 / sliced_threads=0 / nr=0 / decimate=0 / interlaced=0 / constrained_intra=0 / fgo=0 / bframes=8 / b_pyramid=2 / b_adapt=2 / b_bias=0 / direct=3 / weightb=1 / open_gop=0 / weightp=2 / keyint=250 / keyint_min=23 / scenecut=40 / intra_refresh=0 / rc_lookahead=60 / rc=2pass / mbtree=1 / bitrate=5430 / ratetol=1.0 / qcomp=0.60 / qpmin=10 / qpmax=51 / qpstep=4 / cplxblur=20.0 / qblur=0.5 / ip_ratio=1.40 / aq=1:1.00
Language : English

Audio #1
ID : 2
Format : AC-3
Format/Info : Audio Coding 3
Mode extension : CM (complete main)
Codec ID : A_AC3
Duration : 1h 49mn
Bit rate mode : Constant
Bit rate : 640 Kbps
Channel(s) : 6 channels
Channel positions : Front: L C R, Side: L R, LFE
Sampling rate : 48.0 KHz
Bit depth : 16 bits
Stream size : 502 MiB (5%)
Title : DUB CEE
Language : Russian

Audio #2
ID : 3
Format : AC-3
Format/Info : Audio Coding 3
Mode extension : CM (complete main)
Codec ID : A_AC3
Duration : 1h 49mn
Bit rate mode : Constant
Bit rate : 256 Kbps
Channel(s) : 2 channels
Channel positions : Front: L R
Sampling rate : 48.0 KHz
Bit depth : 16 bits
Stream size : 201 MiB (2%)
Title : DUB Varus
Language : Russian

Audio #3
ID : 4
Format : AC-3
Format/Info : Audio Coding 3
Mode extension : CM (complete main)
Codec ID : A_AC3
Duration : 1h 49mn
Bit rate mode : Constant
Bit rate : 384 Kbps
Channel(s) : 6 channels
Channel positions : Front: L C R, Side: L R, LFE
Sampling rate : 48.0 KHz
Bit depth : 16 bits
Stream size : 301 MiB (3%)
Title : MVO Kinomaniya
Language : Russian

Audio #4
ID : 5
Format : AC-3
Format/Info : Audio Coding 3
Mode extension : CM (complete main)
Codec ID : A_AC3
Duration : 1h 49mn
Bit rate mode : Constant
Bit rate : 448 Kbps
Channel(s) : 6 channels
Channel positions : Front: L C R, Side: L R, LFE
Sampling rate : 48.0 KHz
Bit depth : 16 bits
Stream size : 351 MiB (4%)
Title : MVO Premer Video
Language : Russian

Audio #5
ID : 6
Format : AC-3
Format/Info : Audio Coding 3
Mode extension : CM (complete main)
Codec ID : A_AC3
Duration : 1h 49mn
Bit rate mode : Constant
Bit rate : 192 Kbps
Channel(s) : 2 channels
Channel positions : Front: L R
Sampling rate : 48.0 KHz
Bit depth : 16 bits
Stream size : 151 MiB (2%)
Title : MVO OPT
Language : Russian

Audio #6
ID : 7
Format : AC-3
Format/Info : Audio Coding 3
Mode extension : CM (complete main)
Codec ID : A_AC3
Duration : 1h 49mn
Bit rate mode : Constant
Bit rate : 192 Kbps
Channel(s) : 2 channels
Channel positions : Front: L R
Sampling rate : 48.0 KHz
Bit depth : 16 bits
Stream size : 151 MiB (2%)
Title : MVO PTP
Language : Russian

Audio #7
ID : 8
Format : AC-3
Format/Info : Audio Coding 3
Mode extension : CM (complete main)
Codec ID : A_AC3
Duration : 1h 49mn
Bit rate mode : Constant
Bit rate : 448 Kbps
Channel(s) : 6 channels
Channel positions : Front: L C R, Side: L R, LFE
Sampling rate : 48.0 KHz
Bit depth : 16 bits
Stream size : 351 MiB (4%)
Title : AVO Gavrilov
Language : Russian

Audio #8
ID : 9
Format : AC-3
Format/Info : Audio Coding 3
Mode extension : CM (complete main)
Codec ID : A_AC3
Duration : 1h 49mn
Bit rate mode : Constant
Bit rate : 448 Kbps
Channel(s) : 6 channels
Channel positions : Front: L C R, Side: L R, LFE
Sampling rate : 48.0 KHz
Bit depth : 16 bits
Stream size : 351 MiB (4%)
Title : AVO Gavrilov pozd
Language : Russian

Audio #9
ID : 10
Format : AC-3
Format/Info : Audio Coding 3
Mode extension : CM (complete main)
Codec ID : A_AC3
Duration : 1h 49mn
Bit rate mode : Constant
Bit rate : 448 Kbps
Channel(s) : 6 channels
Channel positions : Front: L C R, Side: L R, LFE
Sampling rate : 48.0 KHz
Bit depth : 16 bits
Stream size : 351 MiB (4%)
Title : AVO Zivov
Language : Russian

Audio #10
ID : 11
Format : AC-3
Format/Info : Audio Coding 3
Mode extension : CM (complete main)
Codec ID : A_AC3
Duration : 1h 49mn
Bit rate mode : Constant
Bit rate : 448 Kbps
Channel(s) : 6 channels
Channel positions : Front: L C R, Side: L R, LFE
Sampling rate : 48.0 KHz
Bit depth : 16 bits
Stream size : 351 MiB (4%)
Title : AVO Mixalev
Language : Russian

Audio #11
ID : 12
Format : AC-3
Format/Info : Audio Coding 3
Mode extension : CM (complete main)
Codec ID : A_AC3
Duration : 1h 49mn
Bit rate mode : Constant
Bit rate : 448 Kbps
Channel(s) : 6 channels
Channel positions : Front: L C R, Side: L R, LFE
Sampling rate : 48.0 KHz
Bit depth : 16 bits
Stream size : 351 MiB (4%)
Title : AVO Volodarskiy
Language : Russian

Audio #12
ID : 13
Format : AC-3
Format/Info : Audio Coding 3
Mode extension : CM (complete main)
Codec ID : A_AC3
Duration : 1h 49mn
Bit rate mode : Constant
Bit rate : 448 Kbps
Channel(s) : 6 channels
Channel positions : Front: L C R, Side: L R, LFE
Sampling rate : 48.0 KHz
Bit depth : 16 bits
Stream size : 351 MiB (4%)
Title : AVO Gorchakov
Language : Russian

Audio #13
ID : 14
Format : AC-3
Format/Info : Audio Coding 3
Mode extension : CM (complete main)
Codec ID : A_AC3
Duration : 1h 49mn
Bit rate mode : Constant
Bit rate : 448 Kbps
Channel(s) : 6 channels
Channel positions : Front: L C R, Side: L R, LFE
Sampling rate : 48.0 KHz
Bit depth : 16 bits
Stream size : 351 MiB (4%)
Title : AVO Libergal
Language : Russian

Audio #14
ID : 15
Format : DTS
Format/Info : Digital Theater Systems
Codec ID : A_DTS
Duration : 1h 49mn
Bit rate mode : Constant
Bit rate : 1 510 Kbps
Channel(s) : 6 channels
Channel positions : Front: L C R, Side: L R, LFE
Sampling rate : 48.0 KHz
Bit depth : 16 bits
Stream size : 1.16 GiB (12%)
Language : English

Text #1
ID : 16
Format : UTF-8
Codec ID : S_TEXT/UTF8
Codec ID/Info : UTF-8 Plain Text
Language : Russian

Text #2
ID : 17
Format : UTF-8
Codec ID : S_TEXT/UTF8
Codec ID/Info : UTF-8 Plain Text
Language : English

Menu
00:00:00.000 : :Chapter 01
00:04:26.099 : :Chapter 02
00:11:13.839 : :Chapter 03
00:14:53.601 : :Chapter 04
00:18:13.300 : :Chapter 05
00:23:05.008 : :Chapter 06
00:25:58.390 : :Chapter 07
00:28:36.047 : :Chapter 08
00:36:45.786 : :Chapter 09
00:42:59.577 : :Chapter 10
00:54:12.707 : :Chapter 11
00:57:39.205 : :Chapter 12
01:03:44.237 : :Chapter 13
01:08:10.294 : :Chapter 14
01:10:25.930 : :Chapter 15
01:15:17.513 : :Chapter 16
01:23:47.522 : :Chapter 17
01:29:30.365 : :Chapter 18
01:36:55.476 : :Chapter 19
01:38:54.929 : :Chapter 20
01:43:03.010 : :Chapter 21
01:43:48.222 : :Chapter 22
01:44:45.904 : :Chapter 23

Смертельное оружие 2 / Lethal Weapon 2

«Je conduis. Non, je conduis.[Канада]»

#777Страна: США
Жанр: боевик, триллер, комедия, криминал
Год выпуска: 1989
Продолжительность: 01:54:27
Перевод: Профессиональный (дублированный) - Blu-Ray CEE
Перевод 2: Профессиональный (дублированный) - Варус Видео
Перевод 3: Профессиональный (многоголосый) - Киномания
Перевод 4: Профессиональный (многоголосый) - Премьер Видео
Перевод 5: Профессиональный (многоголосый) - ОРТ
Перевод 6: Профессиональный (многоголосый) - РТР
Перевод 7: Профессиональный (многоголосый) - НТВ
Перевод 8: Авторский одноголосый - Гаврилов
Перевод 9: Авторский одноголосый - Живов
Перевод 10: Авторский одноголосый - Михалёв
Перевод 11: Авторский одноголосый - Володарский
Оригинальная аудиодорожка: английский
Режиссер: Ричард Доннер / Richard Donner
В ролях: Мэл Гибсон, Дэнни Гловер, Джо Пеши, Джосс Экленд, Деррик О’Коннор, Пэтси Кензит, Дарлен Лав, Трэйси Вульф, Стив Кэхэн, Марк Ролстон
Описание: Зрителя вновь ждет встреча с неустанно сражающейся с преступниками парочкой друзей-полицейских (Мел Гибсон и Дэнни Гловер). Спасая собственную жизнь и жизнь главного свидетеля (Джо Пеши), они вынуждены схватиться с шайкой южноафриканских контрабандистов.
Тип релиза: BDRip 720p
Контейнер: MKV

Видео: MPEG-4 AVC, 5106 Кбит/с, 1280x534, 23,976 fps
Аудио: АС3, 48 КГц, 6 ch, 640 Кбит/с - Blu-Ray CEE
Аудио 2: АС3, 48 КГц, 2 ch, 192 Кбит/с - Варус Видео
Аудио 3: АС3, 48 КГц, 6 ch, 384 Кбит/с - Киномания
Аудио 4: АС3, 48 КГц, 6 ch, 448 Кбит/с - Премьер Видео
Аудио 5: АС3, 48 КГц, 2 ch, 192 Кбит/с - ОРТ
Аудио 6: АС3, 48 КГц, 2 ch, 192 Кбит/с - РТР
Аудио 7: АС3, 48 КГц, 2 ch, 192 Кбит/с - НТВ
Аудио 8: АС3, 48 КГц, 6 ch, 448 Кбит/с - Гаврилов
Аудио 9: АС3, 48 КГц, 6 ch, 448 Кбит/с - Живов
Аудио 10: АС3, 48 КГц, 6 ch, 448 Кбит/с - Михалёв
Аудио 11: АС3, 48 КГц, 2 ch, 192 Кбит/с - Володарский
Аудио 12: DTS, 48 КГц, 6 ch, 1510 Кбит/с - Оригинал
Субтитры:: Русские, Английские
Формат субтитров: softsub (SRT)
• Пока семья Мёрто ждет тот самый рекламный ролик, они смотрят «Байки из склепа» (1989), эпизод 1.2 «And All Through The House», премьера которого состоялась 10 июня 1989 года, и где сыграла Мэри Эллен Трэйнор, исполнившая роль доктора Стефании Вудс. Вдобавок, несколько эпизодов «Баек из склепа» были спродюсированы Ричардом Доннером, поставившим данный фильм.
• Имя плотника – МакДжи. Это – настоящее имя актера, сыгравшего данный персонаж (Джек МакДжи).
• Название одеколона, флакон которого разбивается вдребезги во время разрушения трейлера Риггза, - «Hero». В первый раз, когда мы видим Риггза, входящего в свой дом на колесах, можно заметить, что по телевизору идет реклама данного одеколона.
• В сцене, где Лео убирается в доме Риггза, играет песня «I'm Not Scared» британской поп-группы «Eighth Wonder», участницей которой была Пэнси Кенсит, сыгравшая Рику Ван Хаас.
• Коронная фраза Лео «окей-окей-окей» была основана на манере разговора сотрудников парков развлечений «Disneyland», когда они объясняли дорогу к «Fantasyland».
• Изначально Лео должен был быть льстивым и изнеженным персонажам, но Джо Пеши не хотел играть его в такой манере. Он предложил, чтобы Лео был человеком, который слишком старается понравиться всем и каждому.
• Изначально Риггз должен был погибнуть в финальной сцене фильма, но продюсеры решили оставить его в живых, для того чтобы была возможность снять продолжение.
• Сцена разрушения дома на опорах обошлась создателям фильма в более чем $500,000.
• Альтернативный финал фильма: ужин на День благодарения в доме Мёрто, где также присутствуют Риггз и Рика Ван Хаас.
• Количество убитых: 33.
• Режиссёрская версия имеет хронометраж 118 минут.
Complete name : \Smertelnoe.oruzhie.2.1989.x264.BDRip.720p.mkv
Format : Matroska
File size : 8.31 GiB
Duration : 1h 54mn
Overall bit rate : 10.4 Mbps

Encoded date : UTC 2010-11-27 19:15:03
Writing application : mkvmerge v3.4.0 ('Rapunzel') ������ �� May 15 2010 09:38:20
Writing library : libebml v0.8.0 + libmatroska v0.9.0

Video
ID : 1
Format : AVC
Format/Info : Advanced Video Codec
Format profile : High@L4.1
Format settings, CABAC : Yes
Format settings, ReFrames : 9 frames
Muxing mode : Container profile=Unknown@4.1
Codec ID : V_MPEG4/ISO/AVC
Duration : 1h 54mn
Bit rate : 5 106 Kbps
Width : 1 280 pixels
Height : 534 pixels
Display aspect ratio : 2.35:1
Frame rate : 23.976 fps
Color space : YUV
Chroma subsampling : 4:2:0
Bit depth : 8 bits
Scan type : Progressive
Bits/(Pixel*Frame) : 0.312
Stream size : 3.92 GiB (47%)
Writing library : x264 core 107 r1745+311 2317302
Encoding settings : cabac=1 / ref=9 / deblock=1:-3:-3 / analyse=0x3:0x133 / me=umh / subme=9 / psy=1 / fade_compensate=0.00 / psy_rd=1.00:0.00 / mixed_ref=1 / me_range=32 / chroma_me=1 / trellis=2 / 8x8dct=1 / cqm=0 / deadzone=21,11 / fast_pskip=0 / chroma_qp_offset=-2 / threads=3 / sliced_threads=0 / nr=0 / decimate=0 / interlaced=0 / constrained_intra=0 / fgo=0 / bframes=8 / b_pyramid=2 / b_adapt=2 / b_bias=0 / direct=3 / weightb=1 / open_gop=0 / weightp=2 / keyint=250 / keyint_min=23 / scenecut=40 / intra_refresh=0 / rc_lookahead=60 / rc=2pass / mbtree=1 / bitrate=5106 / ratetol=1.0 / qcomp=0.60 / qpmin=10 / qpmax=51 / qpstep=4 / cplxblur=20.0 / qblur=0.5 / ip_ratio=1.40 / aq=1:1.00
Language : English

Audio #1
ID : 2
Format : AC-3
Format/Info : Audio Coding 3
Mode extension : CM (complete main)
Codec ID : A_AC3
Duration : 1h 54mn
Bit rate mode : Constant
Bit rate : 640 Kbps
Channel(s) : 6 channels
Channel positions : Front: L C R, Side: L R, LFE
Sampling rate : 48.0 KHz
Bit depth : 16 bits
Stream size : 524 MiB (6%)
Title : DUB CEE
Language : Russian

Audio #2
ID : 3
Format : AC-3
Format/Info : Audio Coding 3
Mode extension : CM (complete main)
Codec ID : A_AC3
Duration : 1h 54mn
Bit rate mode : Constant
Bit rate : 192 Kbps
Channel(s) : 2 channels
Channel positions : Front: L R
Sampling rate : 48.0 KHz
Bit depth : 16 bits
Stream size : 157 MiB (2%)
Title : DUB Varus Video
Language : Russian

Audio #3
ID : 4
Format : AC-3
Format/Info : Audio Coding 3
Mode extension : CM (complete main)
Codec ID : A_AC3
Duration : 1h 54mn
Bit rate mode : Constant
Bit rate : 384 Kbps
Channel(s) : 6 channels
Channel positions : Front: L C R, Side: L R, LFE
Sampling rate : 48.0 KHz
Bit depth : 16 bits
Stream size : 314 MiB (4%)
Title : MVO Kinomaniya
Language : Russian

Audio #4
ID : 5
Format : AC-3
Format/Info : Audio Coding 3
Mode extension : CM (complete main)
Codec ID : A_AC3
Duration : 1h 54mn
Bit rate mode : Constant
Bit rate : 448 Kbps
Channel(s) : 6 channels
Channel positions : Front: L C R, Side: L R, LFE
Sampling rate : 48.0 KHz
Bit depth : 16 bits
Stream size : 367 MiB (4%)
Title : MVO Premer Video
Language : Russian

Audio #5
ID : 6
Format : AC-3
Format/Info : Audio Coding 3
Mode extension : CM (complete main)
Codec ID : A_AC3
Duration : 1h 54mn
Bit rate mode : Constant
Bit rate : 192 Kbps
Channel(s) : 2 channels
Channel positions : Front: L R
Sampling rate : 48.0 KHz
Bit depth : 16 bits
Stream size : 157 MiB (2%)
Title : MVO OPT
Language : Russian

Audio #6
ID : 7
Format : AC-3
Format/Info : Audio Coding 3
Mode extension : CM (complete main)
Codec ID : A_AC3
Duration : 1h 54mn
Bit rate mode : Constant
Bit rate : 192 Kbps
Channel(s) : 2 channels
Channel positions : Front: L R
Sampling rate : 48.0 KHz
Bit depth : 16 bits
Stream size : 157 MiB (2%)
Title : MVO PTP
Language : Russian

Audio #7
ID : 8
Format : AC-3
Format/Info : Audio Coding 3
Mode extension : CM (complete main)
Codec ID : A_AC3
Duration : 1h 54mn
Bit rate mode : Constant
Bit rate : 192 Kbps
Channel(s) : 2 channels
Channel positions : Front: L R
Sampling rate : 48.0 KHz
Bit depth : 16 bits
Stream size : 157 MiB (2%)
Title : MVO HTB
Language : Russian

Audio #8
ID : 9
Format : AC-3
Format/Info : Audio Coding 3
Mode extension : CM (complete main)
Codec ID : A_AC3
Duration : 1h 54mn
Bit rate mode : Constant
Bit rate : 448 Kbps
Channel(s) : 6 channels
Channel positions : Front: L C R, Side: L R, LFE
Sampling rate : 48.0 KHz
Bit depth : 16 bits
Stream size : 367 MiB (4%)
Title : AVO Gavrilov
Language : Russian

Audio #9
ID : 10
Format : AC-3
Format/Info : Audio Coding 3
Mode extension : CM (complete main)
Codec ID : A_AC3
Duration : 1h 54mn
Bit rate mode : Constant
Bit rate : 448 Kbps
Channel(s) : 6 channels
Channel positions : Front: L C R, Side: L R, LFE
Sampling rate : 48.0 KHz
Bit depth : 16 bits
Stream size : 367 MiB (4%)
Title : AVO Zhivov
Language : Russian

Audio #10
ID : 11
Format : AC-3
Format/Info : Audio Coding 3
Mode extension : CM (complete main)
Codec ID : A_AC3
Duration : 1h 54mn
Bit rate mode : Constant
Bit rate : 448 Kbps
Channel(s) : 6 channels
Channel positions : Front: L C R, Side: L R, LFE
Sampling rate : 48.0 KHz
Bit depth : 16 bits
Stream size : 367 MiB (4%)
Title : AVO Mixalev
Language : Russian

Audio #11
ID : 12
Format : AC-3
Format/Info : Audio Coding 3
Mode extension : CM (complete main)
Codec ID : A_AC3
Duration : 1h 54mn
Bit rate mode : Constant
Bit rate : 192 Kbps
Channel(s) : 2 channels
Channel positions : Front: L R
Sampling rate : 48.0 KHz
Bit depth : 16 bits
Stream size : 157 MiB (2%)
Title : AVO Volodarskiy
Language : Russian

Audio #12
ID : 13
Format : DTS
Format/Info : Digital Theater Systems
Codec ID : A_DTS
Duration : 1h 54mn
Bit rate mode : Constant
Bit rate : 1 510 Kbps
Channel(s) : 6 channels
Channel positions : Front: L C R, Side: L R, LFE
Sampling rate : 48.0 KHz
Bit depth : 16 bits
Stream size : 1.21 GiB (15%)
Language : English

Text #1
ID : 14
Format : UTF-8
Codec ID : S_TEXT/UTF8
Codec ID/Info : UTF-8 Plain Text
Language : Russian

Text #2
ID : 15
Format : UTF-8
Codec ID : S_TEXT/UTF8
Codec ID/Info : UTF-8 Plain Text
Language : English

Menu
00:00:00.000 : :Chapter 01
00:07:51.387 : :Chapter 02
00:10:00.266 : :Chapter 03
00:11:20.262 : :Chapter 04
00:12:58.903 : :Chapter 05
00:16:26.110 : :Chapter 06
00:18:21.141 : :Chapter 07
00:21:42.009 : :Chapter 08
00:23:42.003 : :Chapter 09
00:25:56.846 : :Chapter 10
00:30:25.156 : :Chapter 11
00:33:51.821 : :Chapter 12
00:35:59.448 : :Chapter 13
00:39:39.794 : :Chapter 14
00:42:38.430 : :Chapter 15
00:43:58.927 : :Chapter 16
00:45:34.064 : :Chapter 17
00:47:12.120 : :Chapter 18
00:48:32.409 : :Chapter 19
00:50:32.404 : :Chapter 20
00:51:44.476 : :Chapter 21
00:55:07.220 : :Chapter 22
01:00:13.526 : :Chapter 23
01:06:37.410 : :Chapter 24
01:07:56.489 : :Chapter 25
01:12:04.111 : :Chapter 26
01:15:03.540 : :Chapter 27
01:19:24.926 : :Chapter 28
01:24:13.214 : :Chapter 29
01:26:41.029 : :Chapter 30
01:28:06.364 : :Chapter 31
01:30:30.007 : :Chapter 32
01:33:54.629 : :Chapter 33
01:37:22.086 : :Chapter 34
01:41:08.520 : :Chapter 35
01:43:15.147 : :Chapter 36
01:45:36.121 : :Chapter 37
01:46:36.598 : :Chapter 38
01:49:30.188 : :Chapter 39

Смертельное оружие 3 / Lethal Weapon 3

«The magic is back again!»

#777Страна: США
Жанр: боевик, триллер, комедия, криминал
Год выпуска: 1992
Продолжительность: 01:57:53
Перевод: Профессиональный (дублированный) - Blu-Ray CEE
Перевод 2: Профессиональный (дублированный) - Варус Видео
Перевод 3: Профессиональный (многоголосый) - Киномания
Перевод 4: Профессиональный (многоголосый) - РТР
Перевод 5: Профессиональный (многоголосый) - НТВ
Перевод 6: Авторский одноголосый - Гаврилов
Оригинальная аудиодорожка: английский
Режиссер: Ричард Доннер / Richard Donner
В ролях: Мэл Гибсон, Дэнни Гловер, Джо Пеши, Рене Руссо, Стюарт Уилсон, Стив Кэхэн
Описание: Третий фильм о неустрашимом полицейском Риггсе. На этот раз Мартин и его напарник Роджер сталкиваются с гангстерами, похищающими оружие со склада полиции. Преступную группу, за которой тянется длинный кровавый след, возглавляет бывший сержант Джек Тревис. Найти улики против «грязного» полицейского напарникам помогает Лорна Коул — решительная женщина-полицейский, которая не останавливается перед лицом опасности и уверенно вступает в схватку с противниками...
Тип релиза: BDRip 720p
Контейнер: MKV

Видео: MPEG-4 AVC, 4915 Кбит/с, 1280x530, 23,976 fps
Аудио: АС3, 48 КГц, 6 ch, 640 Кбит/с - Blu-Ray CEE
Аудио 2: АС3, 48 КГц, 2 ch, 192 Кбит/с - Варус Видео
Аудио 3: АС3, 48 КГц, 6 ch, 384 Кбит/с - Киномания
Аудио 4: АС3, 48 КГц, 2 ch, 192 Кбит/с - РТР
Аудио 5: АС3, 48 КГц, 2 ch, 192 Кбит/с - НТВ
Аудио 6: DTS, 48 КГц, 6 ch, 755 Кбит/с - Гаврилов
Аудио 7: DTS, 48 КГц, 6 ch, 1510 Кбит/с - Оригинал
Субтитры:: Русские, Английские
Формат субтитров: softsub (SRT)
• Мёрто и Риггз проезжают кинотеатр, где идет фильм «Реклама на радио» (1992), режиссером которого был Ричард Доннер.
• Риггз (Мэл Гибсон) ест собачьи печенья, для того чтобы бросить курить. В «Безумном максе 2» (1981) персонаж Мэла питается собачьими консервами, для того чтобы выжить.
• Во время погони за инкассаторским автомобилем Делорес восклицает, что он – Воин дороги. Американское название «Безумного Макса 2» (1981), где главную роль сыграл Мэл Гибсон, - «Воин дороги».
• Досмотрите заключительные титры до конца, т.к. после них следует небольшая сцена.
• Лодка Мёрто называется «Код 7», что является условным кодом полиции Лос-Анджелеса для перерыва на обед.
• Это – единственный фильм в данном киносериале, где злодеи не угрожали семье Мёрто.
• Во время сцены, где Риггз и Лорна сравнивают шрамы, множество шрамов, полученных Риггзом, приходятся на события в «Смертельном оружии 2» (1989), в частности шрам от пулевого ранения в легкое и шрам от удара ножом в ногу.
• Когда в начале фильма здание взлетает на воздух, то рёв, который слышит зритель, также был использован в «Кинг Конге» (1976).
• Количество убитых: 17.
• Кэрри Фишер доводила сценарий до ума, но её имя не упоминается в титрах.
• Билл Фредерик, мэр Орландо, сыграл полицейского, который говорит «Браво!», обращаясь к Мёрто и Риггзу после взрыва здания.
• Джоэль Сильвер заплатил $165,000 за разрешение на снос здания.
• Из-за кассового успеха фильма студия «Warner Brothers» подарила Мэлу Гибсону, Дэнни Гловеру, Джо Пеши, Рене Руссо, Джоэлю Сильверу, Ричарду Доннеру и Джеффри Боуму по новому джипу «Range Rover».
• Режиссёрская версия фильма имеет хронометраж 121 минута.
• Здание, которое по ошибке взрывают Риггс и Мёрто, взрывается на самом деле. Это здание мэрии в Орландо, предназначавшееся под снос. Взрывотехники взорвали здание, съёмочная группа засняла процесс во всех подробностях с множества ракурсов. А Гибсон и Гловер безо всяких дублёров по настоящему убегали от настоящего взрыва. Позднее, участники всех четырёх фильмов назовут этот взрыв лучшим из всех, которые им пришлось снять.
Complete name : \Smertelnoe.oruzhie.3.1992.x264.BDRip.720p.mkv
Format : Matroska
File size : 7.24 GiB
Duration : 1h 57mn
Overall bit rate : 8 786 Kbps

Encoded date : UTC 2010-11-27 19:31:07
Writing application : mkvmerge v3.4.0 ('Rapunzel') ������ �� May 15 2010 09:38:20
Writing library : libebml v0.8.0 + libmatroska v0.9.0

Video
ID : 1
Format : AVC
Format/Info : Advanced Video Codec
Format profile : High@L4.1
Format settings, CABAC : Yes
Format settings, ReFrames : 9 frames
Muxing mode : Container profile=Unknown@4.1
Codec ID : V_MPEG4/ISO/AVC
Duration : 1h 57mn
Bit rate : 4 915 Kbps
Width : 1 280 pixels
Height : 530 pixels
Display aspect ratio : 2.40:1
Frame rate : 23.976 fps
Color space : YUV
Chroma subsampling : 4:2:0
Bit depth : 8 bits
Scan type : Progressive
Bits/(Pixel*Frame) : 0.302
Stream size : 3.91 GiB (54%)
Writing library : x264 core 107 r1745+311 2317302
Encoding settings : cabac=1 / ref=9 / deblock=1:-3:-3 / analyse=0x3:0x133 / me=umh / subme=9 / psy=1 / fade_compensate=0.00 / psy_rd=1.00:0.00 / mixed_ref=1 / me_range=32 / chroma_me=1 / trellis=2 / 8x8dct=1 / cqm=0 / deadzone=21,11 / fast_pskip=0 / chroma_qp_offset=-2 / threads=3 / sliced_threads=0 / nr=0 / decimate=0 / interlaced=0 / constrained_intra=0 / fgo=0 / bframes=8 / b_pyramid=2 / b_adapt=2 / b_bias=0 / direct=3 / weightb=1 / open_gop=0 / weightp=2 / keyint=250 / keyint_min=23 / scenecut=40 / intra_refresh=0 / rc_lookahead=60 / rc=2pass / mbtree=1 / bitrate=4915 / ratetol=1.0 / qcomp=0.60 / qpmin=10 / qpmax=51 / qpstep=4 / cplxblur=20.0 / qblur=0.5 / ip_ratio=1.40 / aq=1:1.00
Language : English

Audio #1
ID : 2
Format : AC-3
Format/Info : Audio Coding 3
Mode extension : CM (complete main)
Codec ID : A_AC3
Duration : 1h 57mn
Bit rate mode : Constant
Bit rate : 640 Kbps
Channel(s) : 6 channels
Channel positions : Front: L C R, Side: L R, LFE
Sampling rate : 48.0 KHz
Bit depth : 16 bits
Stream size : 540 MiB (7%)
Title : DUB CEE
Language : Russian

Audio #2
ID : 3
Format : AC-3
Format/Info : Audio Coding 3
Mode extension : CM (complete main)
Codec ID : A_AC3
Duration : 1h 57mn
Bit rate mode : Constant
Bit rate : 192 Kbps
Channel(s) : 2 channels
Channel positions : Front: L R
Sampling rate : 48.0 KHz
Bit depth : 16 bits
Stream size : 162 MiB (2%)
Title : DUB Varus Video
Language : Russian

Audio #3
ID : 4
Format : AC-3
Format/Info : Audio Coding 3
Mode extension : CM (complete main)
Codec ID : A_AC3
Duration : 1h 57mn
Bit rate mode : Constant
Bit rate : 384 Kbps
Channel(s) : 6 channels
Channel positions : Front: L C R, Side: L R, LFE
Sampling rate : 48.0 KHz
Bit depth : 16 bits
Stream size : 324 MiB (4%)
Title : MVO Kinomaniya
Language : Russian

Audio #4
ID : 5
Format : AC-3
Format/Info : Audio Coding 3
Mode extension : CM (complete main)
Codec ID : A_AC3
Duration : 1h 57mn
Bit rate mode : Constant
Bit rate : 192 Kbps
Channel(s) : 2 channels
Channel positions : Front: L R
Sampling rate : 44.1 KHz
Bit depth : 16 bits
Stream size : 162 MiB (2%)
Title : MVO PTP
Language : Russian

Audio #5
ID : 6
Format : AC-3
Format/Info : Audio Coding 3
Mode extension : CM (complete main)
Codec ID : A_AC3
Duration : 1h 57mn
Bit rate mode : Constant
Bit rate : 192 Kbps
Channel(s) : 2 channels
Channel positions : Front: L R
Sampling rate : 44.1 KHz
Bit depth : 16 bits
Stream size : 162 MiB (2%)
Title : MVO HTB
Language : Russian

Audio #6
ID : 7
Format : DTS
Format/Info : Digital Theater Systems
Codec ID : A_DTS
Duration : 1h 57mn
Bit rate mode : Constant
Bit rate : 755 Kbps
Channel(s) : 6 channels
Channel positions : Front: L C R, Side: L R, LFE
Sampling rate : 48.0 KHz
Bit depth : 24 bits
Stream size : 636 MiB (9%)
Title : AVO Gavrilov
Language : Russian

Audio #7
ID : 8
Format : DTS
Format/Info : Digital Theater Systems
Codec ID : A_DTS
Duration : 1h 57mn
Bit rate mode : Constant
Bit rate : 1 510 Kbps
Channel(s) : 6 channels
Channel positions : Front: L C R, Side: L R, LFE
Sampling rate : 48.0 KHz
Bit depth : 16 bits
Stream size : 1.24 GiB (17%)
Language : English

Text #1
ID : 9
Format : UTF-8
Codec ID : S_TEXT/UTF8
Codec ID/Info : UTF-8 Plain Text
Language : Russian

Text #2
ID : 10
Format : UTF-8
Codec ID : S_TEXT/UTF8
Codec ID/Info : UTF-8 Plain Text
Language : English

Menu
00:00:00.000 : :Chapter 01
00:01:39.182 : :Chapter 02
00:07:48.676 : :Chapter 03
00:10:05.062 : :Chapter 04
00:15:11.744 : :Chapter 05
00:20:08.832 : :Chapter 06
00:22:06.450 : :Chapter 07
00:24:36.975 : :Chapter 08
00:29:16.421 : :Chapter 09
00:37:00.593 : :Chapter 10
00:43:34.028 : :Chapter 11
00:49:31.551 : :Chapter 12
00:53:44.262 : :Chapter 13
00:56:17.791 : :Chapter 14
00:58:06.483 : :Chapter 15
01:00:42.347 : :Chapter 16
01:05:49.111 : :Chapter 17
01:11:41.422 : :Chapter 18
01:14:59.745 : :Chapter 19
01:18:15.982 : :Chapter 20
01:22:29.361 : :Chapter 21
01:24:37.197 : :Chapter 22
01:27:21.945 : :Chapter 23
01:29:59.268 : :Chapter 24
01:34:44.178 : :Chapter 25
01:37:15.329 : :Chapter 26
01:42:34.606 : :Chapter 27
01:46:24.628 : :Chapter 28
01:48:26.458 : :Chapter 29
01:51:44.030 : :Chapter 30
01:57:05.018 : :Chapter 31

Смертельное оружие 4 / Lethal Weapon 4

«With 4 you get Kung Fu»

#777Страна: США
Жанр: боевик, триллер, комедия, криминал
Год выпуска: 1998
Продолжительность: 02:07:23
Перевод: Профессиональный (дублированный) - Blu-Ray CEE
Перевод 2: Профессиональный (дублированный) - Варус Видео
Перевод 3: Профессиональный (многоголосый) - Киномания
Перевод 4: Профессиональный (многоголосый) - РТР
Перевод 5: Авторский одноголосый - Гаврилов
Перевод 6: Авторский одноголосый - Живов
Оригинальная аудиодорожка: английский
Режиссер: Ричард Доннер / Richard Donner
В ролях: Мэл Гибсон, Дэнни Гловер, Джо Пеши, Рене Руссо, Крис Рок, Джет Ли, Стив Кэхэн, Ким Чан, Дарлен Лав, Трэйси Вульф
Описание: Главный герой Риггз ждет, как он надеется, сына от Лорны Коул, а Роджер — внука. Оба уже ощущают возраст, им дали звания капитанов, но сердца их все еще молоды и без приключений не могут. В этом 4-м по счету фильме их дорожки случайно пересеклись с китайскими мафиози, печатающими фальшивые деньги. В фильме есть юмор, множество перестрелок, драк, погонь, головокружительных трюков. Взрываются бензовозы, машины, корабли садятся на мель, Джет Ли показывает свое мастерство в восточных единоборствах...
Тип релиза: BDRip 720p
Контейнер: MKV

Видео: MPEG-4 AVC, 5670 Кбит/с, 1280x534, 23,976 fps
Аудио: АС3, 48 КГц, 6 ch, 640 Кбит/с - Blu-Ray CEE
Аудио 2: АС3, 48 КГц, 2 ch, 192 Кбит/с - Варус Видео
Аудио 3: АС3, 48 КГц, 6 ch, 384 Кбит/с - Киномания
Аудио 4: АС3, 48 КГц, 2 ch, 192 Кбит/с - РТР
Аудио 5: АС3, 48 КГц, 2 ch, 192 Кбит/с - Гаврилов
Аудио 6: АС3, 48 КГц, 2 ch, 192 Кбит/с - Живов
Аудио 7: DTS, 48 КГц, 6 ch, 1510 Кбит/с - Оригинал
Субтитры:: Русские, Английские
Формат субтитров: softsub (SRT)
• Роль Джета Ли сначала предлагали Джеки Чану, но тот отказался, так как не хотел играть отрицательного героя.
• В сцене, где Риггз и Мёрто поздравляют друг друга с повышением, они несколько раз пожимают друг другу руки и отдают честь. Точно такая же сцена присутствует в «Вечно молодом» (1992) между Мэлом Гибсоном и Джорджем Вендтом.
• Ким Чан сыграл персонажа по имени дядя Бенни. Точно так же звали его героя в «Коррупционере» (1999).
• Одни и те же актеры сыграли детей Мёрто во всех частях «Смертельного оружия».
• Во всех частях «Смертельного оружия» сыграли следующие актеры: Мэл Гибсон (Риггз); Дэнни Гловер (Мёрто); Дарлен Лав (жена Мёрто); Трэйси Вульф, Дэймон Хайнс и Эбони Смит исполнили роли детей Мёрто; Стив Кэхэн (капитан Мерфи); Мари Эллен Трэйнор (доктор Вудс).
• Пол Тюрп сыграл во всех частях «Смертельного оружия», но он всегда появлялся в разных ролях. Он сыграл наемника в первой части, убийцу во второй, помощника № 3 в третьей, и пилота вертолета в четвертом фильме.
• Автомобильная погоня на шоссе и драка между Риггзом и китайцем снимались на шоссе 215 в Лас Вегасе.
• Съёмки фильма начались в январе, за семь месяцев до премьеры. Монтаж фильма занял около трех недель.
• Трейлер Риггза находится в том же самом месте, что и трейлер Джима Рокфорда в «The Rockford Files» (1974).
• Когда начались съёмки, сценарий фильма еще не был дописан.
• Фраза Роджера Мёрто (Дэнни Гловер) «Я слишком стар для этого дерьма!» произносится в каждой части «Смертельного оружия». Только в данном фильме её произносит Риггз в немного измененном варианте: «Мы не слишком стары для этого дерьма!».
• В телевизионных роликах, рекламирующих фильм, Крис Рок носил полицейскую форму и пародировал Риггза. В фильме мы ни разу не увидели его в полицейской форме. Однако на финальных титрах на одной из фотографий можно увидеть Криса, одетого в полицейскую форму.
• Количество убитых: 30.
Complete name : \Smertelnoe.oruzhie.4.1998.x264.BDRip.720p.mkv
Format : Matroska
File size : 7.99 GiB
Duration : 2h 7mn
Overall bit rate : 8 974 Kbps

Encoded date : UTC 2010-11-27 19:31:29
Writing application : mkvmerge v3.4.0 ('Rapunzel') ������ �� May 15 2010 09:38:20
Writing library : libebml v0.8.0 + libmatroska v0.9.0

Video
ID : 1
Format : AVC
Format/Info : Advanced Video Codec
Format profile : High@L4.1
Format settings, CABAC : Yes
Format settings, ReFrames : 9 frames
Muxing mode : Container profile=Unknown@4.1
Codec ID : V_MPEG4/ISO/AVC
Duration : 2h 7mn
Bit rate : 5 670 Kbps
Width : 1 280 pixels
Height : 534 pixels
Display aspect ratio : 2.35:1
Frame rate : 23.976 fps
Color space : YUV
Chroma subsampling : 4:2:0
Bit depth : 8 bits
Scan type : Progressive
Bits/(Pixel*Frame) : 0.346
Stream size : 4.89 GiB (61%)
Writing library : x264 core 107 r1745+311 2317302
Encoding settings : cabac=1 / ref=9 / deblock=1:-3:-3 / analyse=0x3:0x133 / me=umh / subme=9 / psy=1 / fade_compensate=0.00 / psy_rd=1.00:0.00 / mixed_ref=1 / me_range=32 / chroma_me=1 / trellis=2 / 8x8dct=1 / cqm=0 / deadzone=21,11 / fast_pskip=0 / chroma_qp_offset=-2 / threads=12 / sliced_threads=0 / nr=0 / decimate=0 / interlaced=0 / constrained_intra=0 / fgo=0 / bframes=8 / b_pyramid=2 / b_adapt=2 / b_bias=0 / direct=3 / weightb=1 / open_gop=0 / weightp=2 / keyint=250 / keyint_min=23 / scenecut=40 / intra_refresh=0 / rc_lookahead=60 / rc=2pass / mbtree=1 / bitrate=5670 / ratetol=1.0 / qcomp=0.60 / qpmin=10 / qpmax=51 / qpstep=4 / cplxblur=20.0 / qblur=0.5 / ip_ratio=1.40 / aq=1:1.00
Language : English

Audio #1
ID : 2
Format : AC-3
Format/Info : Audio Coding 3
Mode extension : CM (complete main)
Codec ID : A_AC3
Duration : 2h 7mn
Bit rate mode : Constant
Bit rate : 640 Kbps
Channel(s) : 6 channels
Channel positions : Front: L C R, Side: L R, LFE
Sampling rate : 48.0 KHz
Bit depth : 16 bits
Stream size : 583 MiB (7%)
Title : DUB CEE
Language : Russian

Audio #2
ID : 3
Format : AC-3
Format/Info : Audio Coding 3
Mode extension : CM (complete main)
Codec ID : A_AC3
Duration : 2h 7mn
Bit rate mode : Constant
Bit rate : 192 Kbps
Channel(s) : 2 channels
Channel positions : Front: L R
Sampling rate : 48.0 KHz
Bit depth : 16 bits
Stream size : 175 MiB (2%)
Title : DUB Varus Video
Language : Russian

Audio #3
ID : 4
Format : AC-3
Format/Info : Audio Coding 3
Mode extension : CM (complete main)
Codec ID : A_AC3
Duration : 2h 7mn
Bit rate mode : Constant
Bit rate : 384 Kbps
Channel(s) : 6 channels
Channel positions : Front: L C R, Side: L R, LFE
Sampling rate : 48.0 KHz
Bit depth : 16 bits
Stream size : 350 MiB (4%)
Title : MVO Kinomaniya
Language : Russian

Audio #4
ID : 5
Format : AC-3
Format/Info : Audio Coding 3
Mode extension : CM (complete main)
Codec ID : A_AC3
Duration : 2h 7mn
Bit rate mode : Constant
Bit rate : 192 Kbps
Channel(s) : 2 channels
Channel positions : Front: L R
Sampling rate : 44.1 KHz
Bit depth : 16 bits
Stream size : 175 MiB (2%)
Title : MVO PTP
Language : Russian

Audio #5
ID : 6
Format : AC-3
Format/Info : Audio Coding 3
Mode extension : CM (complete main)
Codec ID : A_AC3
Duration : 2h 7mn
Bit rate mode : Constant
Bit rate : 192 Kbps
Channel(s) : 2 channels
Channel positions : Front: L R
Sampling rate : 48.0 KHz
Bit depth : 16 bits
Stream size : 175 MiB (2%)
Title : AVO Gavrilov
Language : Russian

Audio #6
ID : 7
Format : AC-3
Format/Info : Audio Coding 3
Mode extension : CM (complete main)
Codec ID : A_AC3
Duration : 2h 7mn
Bit rate mode : Constant
Bit rate : 192 Kbps
Channel(s) : 2 channels
Channel positions : Front: L R
Sampling rate : 48.0 KHz
Bit depth : 16 bits
Stream size : 175 MiB (2%)
Title : AVO Zivov
Language : Russian

Audio #7
ID : 8
Format : DTS
Format/Info : Digital Theater Systems
Codec ID : A_DTS
Duration : 2h 7mn
Bit rate mode : Constant
Bit rate : 1 510 Kbps
Channel(s) : 6 channels
Channel positions : Front: L C R, Side: L R, LFE
Sampling rate : 48.0 KHz
Bit depth : 16 bits
Stream size : 1.34 GiB (17%)
Language : English

Text #1
ID : 9
Format : UTF-8
Codec ID : S_TEXT/UTF8
Codec ID/Info : UTF-8 Plain Text
Language : Russian

Text #2
ID : 10
Format : UTF-8
Codec ID : S_TEXT/UTF8
Codec ID/Info : UTF-8 Plain Text
Language : English

Menu
00:00:00.000 : :Chapter 01
00:01:52.195 : :Chapter 02
00:03:51.606 : :Chapter 03
00:05:54.604 : :Chapter 04
00:09:47.587 : :Chapter 05
00:13:40.110 : :Chapter 06
00:15:31.931 : :Chapter 07
00:17:28.964 : :Chapter 08
00:20:32.439 : :Chapter 09
00:21:55.355 : :Chapter 10
00:25:28.109 : :Chapter 11
00:27:50.293 : :Chapter 12
00:32:20.480 : :Chapter 13
00:35:42.515 : :Chapter 14
00:38:17.962 : :Chapter 15
00:40:15.412 : :Chapter 16
00:43:04.123 : :Chapter 17
00:46:27.868 : :Chapter 18
00:49:28.507 : :Chapter 19
00:51:19.659 : :Chapter 20
00:52:14.965 : :Chapter 21
00:55:53.808 : :Chapter 22
00:58:45.396 : :Chapter 23
01:02:42.675 : :Chapter 24
01:06:32.780 : :Chapter 25
01:09:36.463 : :Chapter 26
01:11:34.206 : :Chapter 27
01:13:44.503 : :Chapter 28
01:15:37.449 : :Chapter 29
01:17:28.018 : :Chapter 30
01:20:01.505 : :Chapter 31
01:22:38.453 : :Chapter 32
01:27:29.202 : :Chapter 33
01:31:05.918 : :Chapter 34
01:33:03.035 : :Chapter 35
01:35:37.106 : :Chapter 36
01:38:03.919 : :Chapter 37
01:40:33.610 : :Chapter 38
01:43:51.475 : :Chapter 39
01:46:22.667 : :Chapter 40
01:47:29.985 : :Chapter 41
01:50:10.604 : :Chapter 42
01:53:53.368 : :Chapter 43
01:58:03.117 : :Chapter 44
02:00:15.208 : :Chapter 45
КУБКИ

СТАЖ

МЕДАЛИ
Награды:42

Лучший по количеству кубков (14) За отличные раздачи и качество (21) За подробное оформление раздач (1) Верный Сид (2)

Аватара пользователя
Russia
Gogen
Заслуженный Релизёр-Корсар
  • Торрент
Для скачивания торрента необходимо зарегистрироваться или войти на трекер.

Сообщение dimas » 09 ноя 2018, 20:38

:10 balov:
КУБКИ

СТАЖ

МЕДАЛИ


Аватара пользователя
dimas
Опытный Корсар

Сообщение Bars_St » 12 ноя 2018, 20:32

Большое спасибо!!! :hi: :hi: :hi: Прикольная комедийная серия... :good: :good: :good:
КУБКИ

СТАЖ

МЕДАЛИ
Награды:32

За помощь проекту (11) Лучший по количеству кубков (5) За отличные комментарии (7) Верный Сид (9)

Аватара пользователя
СССР
Bars_St
Заслуженный Корсар-Вип


Вернуться в Зарубежное кино (Сборники фильмов / HD Video)



Uptime по данным Ping-Admin.Ru - сервиса мониторинга доступности сайтов
Рейтинг@Mail.ru Голосуйте за наш сайт в каталоге Rubo.Ru