logo
Международный русскоязычный
торрент-трекер
Menu

Doublon
Поделиться с друзьями: 
Голосуй за Корсар и получи 400 дублонов
Рейтинг торрент трекеров - UpTracker.ru

Следствием установлено (1981, детектив, DVDRip-AVC) - KORSAR

Сообщение filbi1976 » 02 окт 2017, 16:56

Следствием установлено

Год выпуска: 1981
Жанр: детектив
Продолжительность: 01:27:08
Режиссер: Ада Неретниеце
В ролях: Вия Артмане, Гунарс Цилинский, Светлана Брагарник, Мартыньш Вердыньш, Галина Заборская, Евгений Иванычев, Леонид Кулагин, Дмитрий Палеес, Янис Сканис, Валентина Талызина

Описание: В одном из городских парков была убита женщина. В эти же часы внимание милицейского патруля привлёк ночной прохожий, который, убегая, обронил сумку с большой суммой денег. Следователь прокуратуры Рута Граундиня и её коллега майор Крамс предположили, что между этими фактами существует определённая связь...

Кодек: х264
Качество: DVDRip-AVC
Видео: MPEG-4 AVC, 718x524@1112x524, 25 fps, 2527 Кбит/с
Звук: AC3, 6 ch, 384 Кбит/с, AC3, 2 ch, 224 Кбит/с


  • x264 [info]: frame I:698 Avg QP:18.48 size: 69892
  • x264 [info]: frame P:32543 Avg QP:20.02 size: 33859
  • x264 [info]: frame B:97461 Avg QP:22.50 size: 5550
Общее
Уникальный идентификатор : 252102070353253779031972442720395341979 (0xBDA917B6D4D2F05DA1BDFAFBBC90309B)
Полное имя : D:\Следствием установлено_1981-DVDRip-AVC_KORSAR.mkv
Формат : Matroska
Версия формата : Version 2
Размер файла : 1,95 Гбайт
Продолжительность : 1 ч. 27 м.
Общий поток : 3198 Кбит/сек
Дата кодирования : UTC 2017-10-02 14:57:17
Программа кодирования : mkvmerge v5.8.0 ('No Sleep / Pillow') built on Sep 2 2012 15:37:04
Библиотека кодирования : libebml v1.2.3 + libmatroska v1.3.0

Видео
Идентификатор : 1
Формат : AVC
Формат/Информация : Advanced Video Codec
Профиль формата : High@L4.1
Параметр CABAC формата : Да
Параметр RefFrames формата : 13 кадров
Идентификатор кодека : V_MPEG4/ISO/AVC
Продолжительность : 1 ч. 27 м.
Битрейт : 2527 Кбит/сек
Ширина : 718 пикселей
Высота : 524 пикселя
Соотношение сторон : 2,122
Режим частоты кадров : Постоянный
Частота кадров : 25,000 кадров/сек
Цветовое пространство : YUV
Субдискретизация насыщенности : 4:2:0
Битовая глубина : 8 бит
Тип развёртки : Прогрессивная
Бит/(Пиксели*Кадры) : 0.269
Размер потока : 1,54 Гбайт (79%)
Библиотека кодирования : x264 core 148 r2744kMod b97ae06
Настройки программы : cabac=1 / ref=13 / deblock=1:-1:-1 / analyse=0x3:0x133 / me=umh / subme=10 / psy=1 / fade_compensate=0.00 / psy_rd=1.03:0.10 / mixed_ref=1 / me_range=24 / chroma_me=1 / trellis=2 / 8x8dct=1 / cqm=0 / deadzone=21,11 / fast_pskip=1 / chroma_qp_offset=-3 / threads=12 / lookahead_threads=2 / sliced_threads=0 / nr=0 / decimate=1 / interlaced=0 / bluray_compat=0 / constrained_intra=0 / bframes=8 / b_pyramid=2 / b_adapt=2 / b_bias=0 / direct=1 / weightb=1 / open_gop=0 / weightp=2 / keyint=250 / keyint_min=25 / scenecut=40 / intra_refresh=0 / rc=crf / mbtree=0 / crf=18.0000 / qcomp=0.63 / qpmin=0 / qpmax=39 / qpstep=4 / ip_ratio=1.40 / pb_ratio=1.30 / aq=2:0.80
Язык : English
Default : Да
Forced : Нет
Цветовой диапазон : Limited
Основные цвета : BT.601 PAL
Характеристики трансфера : BT.470 System B, BT.470 System G
Коэффициенты матрицы : BT.601

Аудио #1
Идентификатор : 2
Формат : AC-3
Формат/Информация : Audio Coding 3
Параметр Endianness формата : Big
Идентификатор кодека : A_AC3
Продолжительность : 1 ч. 27 м.
Вид битрейта : Постоянный
Битрейт : 384 Кбит/сек
Каналы : 6 каналов
Расположение каналов : Front: L C R, Side: L R, LFE
Частота : 48,0 КГц
Частота кадров : 31,250 кадров/сек (1536 SPF)
Битовая глубина : 16 бит
Метод сжатия : С потерями
Размер потока : 239 Мбайт (12%)
Язык : Russian
ServiceKind/String : Complete Main
Default : Да
Forced : Нет

Аудио #2
Идентификатор : 3
Формат : AC-3
Формат/Информация : Audio Coding 3
Параметр Endianness формата : Big
Идентификатор кодека : A_AC3
Продолжительность : 1 ч. 27 м.
Вид битрейта : Постоянный
Битрейт : 224 Кбит/сек
Каналы : 2 канала
Расположение каналов : Front: L R
Частота : 48,0 КГц
Частота кадров : 31,250 кадров/сек (1536 SPF)
Битовая глубина : 16 бит
Метод сжатия : С потерями
Размер потока : 140 Мбайт (7%)
Язык : Russian
ServiceKind/String : Complete Main
Default : Нет
Forced : Нет

Аватара пользователя
filbi1976
Администратор-Корсар
 
 

Награды: 63
За помощь проекту (1) За отличные раздачи и качество (47) Верный Сид (12) За участие в конкурсах/играх (1)
Раздачи группы KORSAR разрешено перезаливать спустя сутки после публикации
  • Торрент
Для скачивания торрента необходимо зарегистрироваться или войти на трекер.

Сообщение verybigpapa » 02 окт 2017, 17:33

Уважаемый filbi1976, большое спасибо. :hi: :respect:
Улыбайтесь, господа! Улыбайтесь!
Аватара пользователя
verybigpapa
Заслуженный Корсар-Вип
 
 

Награды: 37
За помощь проекту (14) Лучший по количеству кубков (9) За отличные комментарии (5) Верный Сид (9)

Сообщение bagrad » 02 окт 2017, 17:34

Спасибо большое Сергей! :senks2:
Dum spíro, spéro!
Аватара пользователя
bagrad
Заслуженный Корсар-Вип
 
 

Награды: 19
За помощь проекту (2) Лучший по количеству кубков (9) За отличные комментарии (1) Верный Сид (7)

Сообщение bst78 » 02 окт 2017, 17:51

:hi: БОЛЬШОЕ СПАСИБО !!! :hi: :hi: :hi: :rofl: :bajan: :10 balov: :bebebe2: :ura: :good: :respect: :respect: :respect:
Аватара пользователя
bst78
Заслуженный Корсар-Вип
 
 

Награды: 11
За помощь проекту (8) За отличные комментарии (1) Верный Сид (2)

Сообщение petrov5676 » 02 окт 2017, 17:59

Хороший советский детектив... Большое спасибо!!! :hi:

Некоторые современные любители кино сегодня взяли моду придираться к сюжетам советских детективов...
Дескать тут надуманно в сюжете и здесь не то или не так... :girl_crazy:

Но это же не классика в конце концов, которая практически никогда не устаревает....
Да и время тогда было другим и страна совсем была другая, не говоря уже об идеологии и строе...

Лично по мне - Рижская киностудия в то время выпускала только "фирменные" детективы... :10 balov:
Аватара пользователя
petrov5676
Опытный Корсар
 
 

Награды: 9
За отличные комментарии (8) За участие в конкурсах/играх (1)

Сообщение Bars_St » 03 окт 2017, 05:21

Спасибо! :hi: Хороший детектив...
Аватара пользователя
Bars_St
Заслуженный Корсар-Вип
 
 

Награды: 32
За помощь проекту (11) Лучший по количеству кубков (5) За отличные комментарии (7) Верный Сид (9)

Сообщение Бользен » 03 окт 2017, 09:51

Благодарю.
Аватара пользователя
Бользен
Уважаемый Корсар
 
 

Награды: 5
Лучший по количеству кубков (1) За отличные комментарии (1) Верный Сид (3)

Сообщение kwazar312 » 03 окт 2017, 12:28

Большое спасибо,уважаемый filbi1976,за отличный фильм.
Прибалтика-это знак качества.
Удачи ВАМ.
Аватара пользователя
kwazar312
Заслуженный Корсар-Вип
 
 

Награды: 63
За помощь проекту (7) Лучший по количеству кубков (16) За отличные комментарии (10) Верный Сид (25) За участие в конкурсах/играх (5)

Сообщение filbi1976 » 03 окт 2017, 13:52

Всем пожалуйста! :hi:
Аватара пользователя
filbi1976
Администратор-Корсар
 
 

Награды: 63
За помощь проекту (1) За отличные раздачи и качество (47) Верный Сид (12) За участие в конкурсах/играх (1)

Сообщение bortnikov » 04 окт 2017, 16:17

Спасибо, Сергей, за хороший фильм с несравненной актрисой Вией Артмане.
Аватара пользователя
bortnikov
Уважаемый Корсар
 
 

Награды: 5
Лучший по количеству кубков (1) Верный Сид (4)

Сообщение Spartacus » 11 окт 2018, 18:08

Большое спасибо!!!
Аватара пользователя
Spartacus
Опытный Корсар
 
 

Награды: 3
Верный Сид (3)


Вернуться в Кино времён СССР



Uptime по данным Ping-Admin.Ru - сервиса мониторинга доступности сайтов
Рейтинг@Mail.ru Голосуйте за наш сайт в каталоге Rubo.Ru
cron