logo
Международный русскоязычный
торрент-трекер
Menu
"Бунт на корабле", за скачанные торрент-файлы дублоны не снимаются. Возможность оплачена пользователем tarik.
Doublon
Поделиться с друзьями: 
Голосуй за Корсар и получи 500 дублонов
Рейтинг торрент трекеров - UpTracker.ru

Скорость / Speed (1994, боевик, триллер, криминал, BDRip 720p) | 60 fps

Сообщение envy » 03 май 2017, 10:32

Информация о фильме
Русское название: Скорость
Оригинальное название: Speed
Год выхода: 1994
Жанр: боевик, триллер, криминал
Режиссер: Ян де Бонт
Выпущено: США
Продолжительность: 01:55:54
Перевод: Профессиональный (многоголосый, закадровый
В ролях: Киану Ривз, Деннис Хоппер, Сандра Баллок, Джеф Дэниелс, Джо Мортон, Алан Рак, Гленн Пламмер, Ричард Лайнбек

Описание:
Представьте себе девушку, у которой на заднем стекле автомобиля красуется наклейка с восклицательным знаком, чайником и странного вида туфлей с подписью «уважай меня». Теперь представьте эту девушку за рулем гигантского американского автобуса, несущегося по городу на огромной скорости в час пик. Выглядит это довольно забавно, если не знать, что автобус заминирован и может взорваться, если стрелка спидометра опустится ниже восьмидесяти километров в час.
Пассажиры в панике, события разворачивается с бешеной скоростью, а времени до взрыва остается все меньше. На поиски таинственного террориста, который уже доказал серьезность своих намерений, взорвав переполненный людьми лифт, брошены элитные подразделения полиции. Но время идет, а выйти на след преступника так и не удается. В противоборство с террористом вступает лучший боец спецназа Джек Трейвен. Теперь от того, сможет ли он верно распорядиться оставшимися секундами, зависят жизни десятков людей.

Файл
Качество: BDRip 720p (исходник Blu-ray Disc Remux)
Контейнер: MKV (расширение файла)
Видео: 1280x544, 4461 Кбит/сек, 60.000 кадр/сек, AVC, x264, High@L4.1, 2.35:1, 0.172 Бит/[Пиксели*Кадры]
Аудио 1: AC-3, 448 Кбит/сек, 6 канала(ов), 48,0 КГц - Многоголосый закадровый / Русский
Аудио 2: AC-3, 448 Кбит/сек, 6 канала(ов), 48,0 КГц - Оригинал / Английский
Субтитры: Русские | Полные, Английские | Полные
Форсированные субтитры: Нет
Чаптеры (Главы): Есть


Автор Рипа: Сообщество: мы в VK



Format : Matroska
Format version : Version 2
File size : 6.84 GiB
Duration : 1 h 55 min
Overall bit rate : 8 450 kb/s
Movie name : Speed.(1994).BDRip.720p.[envy].[60fps]
Encoded date : UTC 2017-05-03 06:21:49
Writing application : mkvmerge v5.8.0 ('No Sleep / Pillow') built on Sep 2 2012 15:37:04
Writing library : libebml v1.2.3 + libmatroska v1.3.0

Video
ID : 1
Format : AVC
Format/Info : Advanced Video Codec
Format profile : High@L4.1
Format settings, CABAC : Yes
Format settings, ReFrames : 9 frames
Codec ID : V_MPEG4/ISO/AVC
Duration : 1 h 55 min
Bit rate : 7 194 kb/s
Width : 1 280 pixels
Height : 544 pixels
Display aspect ratio : 2.35:1
Frame rate mode : Constant
Frame rate : 60.000 FPS
Color space : YUV
Chroma subsampling : 4:2:0
Bit depth : 8 bits
Scan type : Progressive
Bits/(Pixel*Frame) : 0.172
Stream size : 5.82 GiB (85%)
Title : Speed.(1994).BDRip.720p.[envy].[60fps]
Writing library : x264 core 146 r2538 121396c
Encoding settings : cabac=1 / ref=9 / deblock=1:0:0 / analyse=0x3:0x113 / me=umh / subme=11 / psy=1 / psy_rd=1.00:0.00 / mixed_ref=1 / me_range=24 / chroma_me=1 / trellis=2 / 8x8dct=1 / cqm=0 / deadzone=21,11 / fast_pskip=0 / chroma_qp_offset=-2 / threads=12 / lookahead_threads=1 / sliced_threads=0 / nr=0 / decimate=1 / interlaced=0 / bluray_compat=0 / constrained_intra=0 / bframes=5 / b_pyramid=2 / b_adapt=2 / b_bias=0 / direct=3 / weightb=1 / open_gop=0 / weightp=2 / keyint=250 / keyint_min=25 / scenecut=40 / intra_refresh=0 / rc_lookahead=40 / rc=crf / mbtree=0 / crf=17.0 / qcomp=0.60 / qpmin=0 / qpmax=69 / qpstep=4 / vbv_maxrate=14000 / vbv_bufsize=14000 / crf_max=0.0 / nal_hrd=none / filler=0 / ip_ratio=1.40 / pb_ratio=1.30 / aq=3:1.00
Language : English
Default : Yes
Forced : No

Audio #1
ID : 2
Format : AC-3
Format/Info : Audio Coding 3
Format settings, Endianness : Big
Codec ID : A_AC3
Duration : 1 h 55 min
Bit rate mode : Constant
Bit rate : 448 kb/s
Channel(s) : 6 channels
Channel positions : Front: L C R, Side: L R, LFE
Sampling rate : 48.0 kHz
Frame rate : 31.250 FPS (1536 spf)
Bit depth : 16 bits
Compression mode : Lossy
Stream size : 371 MiB (5%)
Title : MVO
Language : Russian
Service kind : Complete Main
Default : Yes
Forced : No

Audio #2
ID : 3
Format : AC-3
Format/Info : Audio Coding 3
Format settings, Endianness : Big
Codec ID : A_AC3
Duration : 1 h 55 min
Bit rate mode : Constant
Bit rate : 640 kb/s
Channel(s) : 6 channels
Channel positions : Front: L C R, Side: L R, LFE
Sampling rate : 48.0 kHz
Frame rate : 31.250 FPS (1536 spf)
Bit depth : 16 bits
Compression mode : Lossy
Stream size : 531 MiB (8%)
Title : Eng
Language : English
Service kind : Complete Main
Default : No
Forced : No

Text #1
ID : 4
Format : UTF-8
Codec ID : S_TEXT/UTF8
Codec ID/Info : UTF-8 Plain Text
Title : Rus full
Language : Russian
Default : No
Forced : No

Text #2
ID : 5
Format : UTF-8
Codec ID : S_TEXT/UTF8
Codec ID/Info : UTF-8 Plain Text
Title : Eng full
Language : English
Default : No
Forced : No

Menu
00:00:00.000 : :00:00:00.000
00:04:19.551 : :00:04:19.551
00:06:04.281 : :00:06:04.281
00:08:27.090 : :00:08:27.090
00:11:17.886 : :00:11:17.886
00:15:23.714 : :00:15:23.714
00:17:38.224 : :00:17:38.224
00:23:21.817 : :00:23:21.817
00:26:43.769 : :00:26:43.769
00:31:01.777 : :00:31:01.777
00:35:05.520 : :00:35:05.520
00:40:23.588 : :00:40:23.588
00:44:32.753 : :00:44:32.753
00:48:46.507 : :00:48:46.507
00:53:09.186 : :00:53:09.186
00:55:44.216 : :00:55:44.216
00:58:51.820 : :00:58:51.820
01:02:19.444 : :01:02:19.444
01:07:38.388 : :01:07:38.388
01:08:54.547 : :01:08:54.547
01:11:51.516 : :01:11:51.516
01:15:16.846 : :01:15:16.846
01:15:40.536 : :01:15:40.536
01:19:33.519 : :01:19:33.519
01:23:27.586 : :01:23:27.586
01:27:04.636 : :01:27:04.636
01:32:57.197 : :01:32:57.197
01:37:06.029 : :01:37:06.029
01:40:28.231 : :01:40:28.231
01:42:19.884 : :01:42:19.884
01:46:05.776 : :01:46:05.776
01:50:06.266 : :01:50:06.266


Прежде чем скачивать фильм полностью, скачайте "сэмпл", и проверьте будет ли воспроизводится видео на вашем устройстве!

Q: Присутствуют ли артефакты на изображении?
A: Да, есть, и будут, какие настройки скритпа не вписывай они будут постоянно! Так как это дорисованные кадры из исходных + Видео ряд обработан фильтром "Sharp"

Q: У меня не запускается видео на компьютере?
A: Обновите кодеки. (попробуйте другие видео проигрыватели)

Q: У меня идет рассинхрон звука и видео?
A: Проблема в мощности компьютера. (возможно также нужно обновить кодеки)

Q: Что нужно для воспроизведения данного видео.
A: Что рекомендуется для воспроизведения мной:
Процессор: 4х ядерный
Видео карта: минимум 512Мб. И желательно включить обработку изображения с помощью видео карты. (Деинтерлейсинг, подавление блочности и т.д.)
ОЗУ: 2-4Гб

Проигрыватели.
MPC-HC (Media Player Classic - Home Cinema)
The KMPlayer (Korean Multimedia Player) (оптимальный вариант)
Mirillis Splash PRO (Если что то проигрыватель сам может преобразовывать видео вплоть до частоты кадров монитора. Или тех же 60fps.)

^Прежде чем отписывать комментарии по качеству, прочитайте спойлер!
КУБКИ

СТАЖ

МЕДАЛИ
Награды:42

За активную помощь проекту (1) Лучший по количеству кубков (4) За отличные раздачи и качество (22) За подробное оформление раздач (2) Почётный форумчанин (4) Верный Сид (5)

Аватара пользователя
envy
Опытный Релизёр-Корсар
  • Торрент
Для скачивания торрента необходимо зарегистрироваться или войти на трекер.

Сообщение kwazar312 » 31 май 2019, 21:18

«Ско́рость» (англ. Speed) — американский боевик 1994 года режиссёра Яна де Бонта. Обладатель двух премий «Оскар» (за звук и звуковой монтаж). Фильм стал ключевым для актрисы Сандры Буллок, получившей после его выхода всеобщую известность и популярность.
Сумасшедший террорист (Деннис Хоппер) по неизвестным полиции причинам минирует лифт с пассажирами в небоскрёбе и требует выкуп в 3 миллиона долларов. Антитеррористическое подразделение полиции Лос-Анджелеса срывает планы террориста и спасает заложников.После неудачной попытки безумный сапёр решает отомстить и устанавливает в рейсовом автобусе № 2525 радиоуправляемую бомбу, которая взорвётся, если скорость автобуса упадёт ниже 50 миль в час (около 80 км/ч).После того, как автобус выходит на шоссе и набирает скорость, взрывное устройство активируется и машина превращается в скоростную бомбу с заложниками, которая не может остановиться. В автобус на полной скорости проникает сотрудник спецслужб (Киану Ривз), который вместе со случайной попутчицей (Сандра Буллок), оказавшейся за рулём автобуса, ищет способ спасти жизни людей.
Уважаемый envy,спасибо за раздачу.
:hi: :good: :good: :punk:
КУБКИ

СТАЖ

МЕДАЛИ
Награды:133

За активную помощь проекту (13) Лучший по количеству кубков (40) За отличные раздачи и качество (3) За отличные комментарии (22) Почётный форумчанин (4) Верный Сид (45) За участие в конкурсах/играх (6)

Аватара пользователя
kwazar312
Заслуженный Корсар-Вип


Вернуться в Фильмы 60 FPS (60 FPS Video)



Uptime по данным Ping-Admin.Ru - сервиса мониторинга доступности сайтов
Рейтинг@Mail.ru