logo
Международный русскоязычный
торрент-трекер
Menu

Doublon
Поделиться с друзьями: 
Голосуй за Корсар и получи 150 дублонов
Рейтинг торрент трекеров - UpTracker.ru

Скользящие / Путешествия в параллельные миры / Sliders / Сезон: 3 / Серии: 1-25 (25) (1997, Фантастика, мистика, приключения, DVDRemux)

Сообщение Korsar » 01 дек 2016, 18:56

Скользящие / Путешествия в параллельные миры / Sliders

Год выпуска: 1997
Страна: США
Жанр: Фантастика, мистика, приключения
Продолжительность: ~44min

Режиссер:
Марио Аццопарди (Mario Azzopardi)

В ролях:
Джон Рис-Дэвис
Джерри О'Коннелл
Сабрина Ллойд
Клеавант Деррикс
Кэри Вюрер
Чарли О’Коннелл
Роберт Флойд
Темби Лок
Описание:
Молодой и талантливый начинающий учёный Куин Мелори, работая в своём подвале над созданием антигравитационной машины, изобретает устройство создающее червоточины — порталы, связывающие два параллельных мира. После перехода путешественника сквозь такой портал, он оказывается в альтернативной реальности, которая может кардинально отличаться от нашей. При этом, перемещаясь через портал, путешественник не знает, в какой из бесчисленных вариаций параллельных вселенных он окажется. Устройство имеет таймер, ведущий обратный отсчёт времени. По истечении времени таймера путешественник возвращается в свою реальность. Процесс перехода сквозь портал был назван «скольжением» (отсюда и название сериала)
Общее
Уникальный идентификатор : 173250052439213153081381725713990941886 (0x8256BF132608809FA738F6EF8153FCBE)
Полное имя : ...\Sliders\Season 3\3x01 Rules of the Game [ВИЗГУНОВ]+[СТС]+[SyFy]+[ENG].mkv
Формат : Matroska
Версия формата : Version 4 / Version 2
Размер файла : 1,77 Гбайт
Продолжительность : 43 м.
Режим общего битрейта : Переменный
Общий поток : 5779 Кбит/сек
Дата кодирования : UTC 2013-06-08 07:59:34
Программа кодирования : mkvmerge v6.2.0 ('Promised Land') built on Apr 28 2013 12:22:01
Библиотека кодирования : libebml v1.3.0 + libmatroska v1.4.0

Видео
Идентификатор : 1
Формат : MPEG Video
Версия формата : Version 2
Профиль формата : Main@Main
Параметр BVOP формата : Нет
Параметр матрицы формата : Выборочная
Идентификатор кодека : V_MPEG2
Идентификатор кодека/Информация: MPEG 1 or 2 Video
Продолжительность : 43 м.
Вид битрейта : Переменный
Битрейт : 4896 Кбит/сек
Максимальный битрейт : 9800 Кбит/сек
Ширина : 720 пикс.
Высота : 480 пикс.
Соотношение сторон : 4:3
Режим частоты кадров : Постоянный
Частота кадров : 29,970 кадр/сек
Стандарт вещания : NTSC
Цветовое пространство : YUV
Подвыборка цветности : 4:2:0
Битовая глубина : 8 бит
Тип развёртки : Чересстрочная
Порядок развёртки : Верхнее поле первое
Метод сжатия : С потерями
Бит/(Пиксели*Кадры) : 0.473
Размер потока : 1,50 Гбайт (85%)
Язык : English
Default : Нет
Forced : Нет

Аудио #1
Идентификатор : 2
Формат : AC-3
Формат/Информация : Audio Coding 3
Расширение режима : CM (complete main)
Параметр Endianness формата : Big
Идентификатор кодека : A_AC3
Продолжительность : 43 м.
Вид битрейта : Постоянный
Битрейт : 256 Кбит/сек
Каналы : 2 канала
Расположение каналов : Front: L R
Частота : 48,0 КГц
Битовая глубина : 16 бит
Метод сжатия : С потерями
Размер потока : 80,4 Мбайт (4%)
Заголовок : Визгунов
Язык : Russian
Default : Да
Forced : Нет

Аудио #2
Идентификатор : 3
Формат : AC-3
Формат/Информация : Audio Coding 3
Расширение режима : CM (complete main)
Параметр Endianness формата : Big
Идентификатор кодека : A_AC3
Продолжительность : 43 м.
Вид битрейта : Постоянный
Битрейт : 192 Кбит/сек
Каналы : 2 канала
Расположение каналов : Front: L R
Частота : 48,0 КГц
Битовая глубина : 16 бит
Метод сжатия : С потерями
Размер потока : 60,3 Мбайт (3%)
Заголовок : СТС
Язык : Russian
Default : Нет
Forced : Нет

Аудио #3
Идентификатор : 4
Формат : MPEG Audio
Версия формата : Version 1
Профиль формата : Layer 3
Режим : Joint stereo
Расширение режима : MS Stereo
Идентификатор кодека : A_MPEG/L3
Идентификатор кодека/Подсказка : MP3
Продолжительность : 43 м.
Вид битрейта : Постоянный
Битрейт : 128 Кбит/сек
Каналы : 2 канала
Частота : 48,0 КГц
Метод сжатия : С потерями
Размер потока : 40,2 Мбайт (2%)
Заголовок : SyFy
Язык : Russian
Default : Нет
Forced : Нет

Аудио #4
Идентификатор : 5
Формат : AC-3
Формат/Информация : Audio Coding 3
Профиль формата : Dolby Digital
Расширение режима : CM (complete main)
Параметр Endianness формата : Big
Идентификатор кодека : A_AC3
Продолжительность : 43 м.
Вид битрейта : Постоянный
Битрейт : 192 Кбит/сек
Каналы : 2 канала
Расположение каналов : Front: L R
Частота : 48,0 КГц
Битовая глубина : 16 бит
Метод сжатия : С потерями
Размер потока : 60,3 Мбайт (3%)
Заголовок : English
Язык : English
Default : Нет
Forced : Нет

Текст #1
Идентификатор : 6
Формат : VobSub
Режим смешивания : zlib
Идентификатор кодека : S_VOBSUB
Идентификатор кодека/Информация: The same subtitle format used on DVDs
Язык : English
Default : Да
Forced : Нет

Текст #2
Идентификатор : 7
Формат : VobSub
Режим смешивания : zlib
Идентификатор кодека : S_VOBSUB
Идентификатор кодека/Информация: The same subtitle format used on DVDs
Язык : Spanish
Default : Нет
Forced : Нет

Текст #3
Идентификатор : 8
Формат : VobSub
Режим смешивания : zlib
Идентификатор кодека : S_VOBSUB
Идентификатор кодека/Информация: The same subtitle format used on DVDs
Язык : French
Default : Нет
Forced : Нет

Качество: DVD-Remux
Формат: MKV
Видео кодек: MPEG2
Аудио кодек: AC3 / MP3
Видео: MPEG-2 Video | NTSC | 4:3 | 720x480 | 29.970 fps | 4800~6940 Kbps | 0.470~0.671 bit/pixel
Аудиодорожка 01: AC3 | 48khz | 2ch | 256 kb/s | Авторский (одноголосный, закадровый): | Визгунов Сергей | 3x01-13,15-25
Аудиодорожка 02: AC3 | 48khz | 2ch | 192 kb/s | Профессиональный (многоголосный, закадровый): | Телеканал СТС (сделано кем-то из дубляжа) | 3x01-17
Аудиодорожка 03: MP3 | 48khz | 2ch | 128kb/s | Профессиональный (многоголосный, закадровый): | Телеканал SyFy | 3x01-25
Аудиодорожка 04: AC3 | 48khz | 2ch | 192 kb/s | Оригинал: | English | 3x01-25
Аудиодорожка 05: (в раздаче отсутствует, ): AC3 | 48khz | 2ch | 192 kb/s | Украинская (Вир Світів): | ICTV | 3x01-05,08,14,19,21-25
Субтитры 01: VobSub | Оригинал | English | 3x01-25
Субтитры 02: VobSub | Испанские | Spanish | 3x01-25
Субтитры 03: VobSub | Французские | French | 3x01-25
Автор: RoxMarty

Боцман
Аватара пользователя
Korsar
Заслуженный Корсар-Вип+
 
 

Награды: 32
За помощь проекту (2) Лучший по количеству кубков (2) За отличные раздачи и качество (13) За подробное оформление раздач (1) За отличные комментарии (1) Верный Сид (11) За участие в конкурсах/играх (2)
  • Торрент
Для скачивания торрента необходимо зарегистрироваться или войти на трекер.

Вернуться в Зарубежные сериалы



Uptime по данным Ping-Admin.Ru - сервиса мониторинга доступности сайтов
Рейтинг@Mail.ru