logo
Международный русскоязычный
торрент-трекер
Menu
Поделиться с друзьями: 
Голосуй за Корсар и получи 500 дублонов
Рейтинг торрент трекеров - UpTracker.ru

Сибирский цирюльник (1998, Драма, WEBRip-AVC) - KORSAR

Сообщение filbi1976 » 22 май 2020, 22:37

Сибирский цирюльник

Год выпуска: 1998
Страна: Россия, Франция, Италия, Чехия
Жанр: Драма
Продолжительность: 02:52:03
Режиссёр: Никита Михалков
В ролях: Олег Меньшиков, Джулия Ормонд, Ричард Харрис, Алексей Петренко, Марина Неёлова, Владимир Ильин, Даниэль Ольбрыхский, Анна Михалкова, Марат Башаров, Никита Татаренков, Артем Михалков, Георгий Дронов, Авангард Леонтьев, Роберт Харди, Элизабет Сприггс, Никита Михалков, Изабель Рено, Евгений Стеблов, Владимир Зайцев, Виктор Вержбицкий, Леонид Куравлёв, Александр Леньков, Александр Ильин, Евгений Дворжецкий

Описание: Годы правления Александра III. «Сибирский цирюльник» — паровая самоходная лесопилка, заказ на производство которой пытается получить в российских государственных органах американский авантюрист Маккрэкен. Для своей поддержки он вызывает в Москву Джейн, чья задача — обворожить генерала Радлова и уговорить его дать согласие на разработку машины.
По пути Джейн знакомится с юнкером Андреем Толстым. Он влюбляется в иностранку и в порыве ревности избивает соперника-генерала. Бывшего юнкера, закованного в кандалы, отправляют в Сибирь, разлучив с возлюбленной…



Качество: WEBRip-AVC
Формат: MKV
Видео: MPEG-4 AVC, 1152x486, 25 fps, 5042 Кбит/с
Аудио: AC3, 6 ch, 448 Кбит/с
Язык: Русский
Субтитры: Русские (на англ. речь)
Навигация по главам: Есть



  • x264 [info]: frame I:2098 Avg QP:17.58 size:115209
  • x264 [info]: frame P:60372 Avg QP:18.89 size: 56786
  • x264 [info]: frame B:192260 Avg QP:21.28 size: 15035
  • x264 [info]: consecutive B-frames: 2.5% 2.3% 7.0% 40.4% 15.6% 30.8% 0.9% 0.3% 0.1% 0.0% 0.0%
Общее
Уникальный идентификатор : 188804874479495592110111201492162850298 (0x8E0A7F031292AA839C789A46A4D42DFA)
Полное имя : D:\Сибирский цирюльник_1998-WEBRip-AVC_KORSAR.mkv
Формат : Matroska
Версия формата : Version 2
Размер файла : 6,64 Гбайт
Продолжительность : 2 ч. 49 м.
Общий поток : 5 601 Кбит/сек
Название фильма : Сибирский цирюльник_1998-WEBRip-AVC_KORSAR
Дата кодирования : UTC 2020-05-22 19:24:14
Программа кодирования : mkvmerge v5.8.0 ('No Sleep / Pillow') built on Sep 2 2012 15:37:04
Библиотека кодирования : libebml v1.2.3 + libmatroska v1.3.0
Обложка : Yes
Attachments : Cover.jpeg

Видео
Идентификатор : 1
Формат : AVC
Формат/Информация : Advanced Video Codec
Профиль формата : High@L4.1
Настройки формата : CABAC / 14 Ref Frames
Параметр CABAC формата : Да
Параметр RefFrames формата : 14 кадров
Идентификатор кодека : V_MPEG4/ISO/AVC
Продолжительность : 2 ч. 49 м.
Битрейт : 5 042 Кбит/сек
Ширина : 1 152 пикселя
Высота : 486 пикселей
Соотношение сторон : 2,40:1
Режим частоты кадров : Постоянный
Частота кадров : 25,000 кадров/сек
Цветовое пространство : YUV
Субдискретизация насыщенности : 4:2:0
Битовая глубина : 8 бит
Тип развёртки : Прогрессивная
Бит/(Пиксели*Кадры) : 0.360
Размер потока : 5,98 Гбайт (90%)
Библиотека кодирования : x264 core 152 r2851kMod ba24899
Настройки программы : cabac=1 / ref=14 / deblock=1:-2:-1 / analyse=0x3:0x113 / me=umh / subme=10 / psy=1 / fade_compensate=0.00 / psy_rd=1.05:0.10 / mixed_ref=1 / me_range=40 / chroma_me=1 / trellis=2 / 8x8dct=1 / cqm=0 / deadzone=21,11 / fast_pskip=1 / chroma_qp_offset=-3 / threads=4 / lookahead_threads=1 / sliced_threads=0 / nr=0 / decimate=1 / interlaced=0 / bluray_compat=0 / constrained_intra=0 / bframes=10 / b_pyramid=2 / b_adapt=2 / b_bias=0 / direct=1 / weightb=1 / open_gop=0 / weightp=2 / keyint=250 / keyint_min=25 / scenecut=40 / intra_refresh=0 / rc_lookahead=40 / rc=crf / mbtree=0 / crf=17.3000 / qcomp=0.63 / qpmin=0 / qpmax=33 / qpstep=4 / vbv_maxrate=50000 / vbv_bufsize=62500 / crf_max=0.0 / nal_hrd=none / filler=0 / ip_ratio=1.40 / pb_ratio=1.30 / aq=1:0.75
Язык : English
Default : Да
Forced : Нет
Цветовой диапазон : Limited
Основные цвета : BT.709
Характеристики трансфера : BT.709
Коэффициенты матрицы : BT.709
Duration_Source : General_Duration

Аудио
Идентификатор : 2
Формат : AC-3
Формат/Информация : Audio Coding 3
Коммерческое название : Dolby Digital
Идентификатор кодека : A_AC3
Продолжительность : 2 ч. 49 м.
Вид битрейта : Постоянный
Битрейт : 448 Кбит/сек
Каналы : 6 каналов
Channel layout : L R C LFE Ls Rs
Частота : 48,0 КГц
Частота кадров : 31,250 кадров/сек (1536 SPF)
Метод сжатия : С потерями
Размер потока : 544 Мбайт (8%)
Язык : Russian
Service kind : Complete Main
Default : Да
Forced : Нет
Duration_Source : General_Duration

Текст
Идентификатор : 3
Формат : UTF-8
Идентификатор кодека : S_TEXT/UTF8
Идентификатор кодека/Информация : UTF-8 Plain Text
Заголовок : На английскую речь
Язык : Russian
Default : Да
Forced : Нет

Меню
00:00:00.000 : en:Chapter 1
00:05:26.040 : en:Chapter 2
00:15:23.120 : en:Chapter 3
00:17:28.240 : en:Chapter 4
00:22:22.720 : en:Chapter 5
00:27:08.200 : en:Chapter 6
00:29:33.760 : en:Chapter 7
00:37:54.520 : en:Chapter 8
00:40:12.400 : en:Chapter 9
00:46:33.920 : en:Chapter 10
00:49:35.520 : en:Chapter 11
00:54:32.760 : en:Chapter 12
00:59:00.520 : en:Chapter 13
01:12:22.760 : en:Chapter 14
01:18:24.120 : en:Chapter 15
01:20:40.400 : en:Chapter 16
01:27:59.680 : en:Chapter 17
01:36:26.920 : en:Chapter 18
01:39:47.400 : en:Chapter 19
01:56:38.760 : en:Chapter 20
02:10:30.320 : en:Chapter 21
02:12:25.680 : en:Chapter 22
02:26:25.760 : en:Chapter 23
02:31:53.120 : en:Chapter 24
02:39:06.160 : en:Chapter 25
02:40:28.840 : en:Chapter 26
02:46:40.880 : en:Chapter 27

Просьба отключить блокировщики рекламы на странице скриншотов по адресу: http://3.lostpic.net/, этим Вы поможете существованию проекта. Заранее спасибо!
The Show Must Go On
Посмотреть товар в профиле пользователя

Нажмите на изображение, чтобы увидеть в полный размер  
1 шт.
Нажмите на изображение, чтобы увидеть в полный размер  
1 шт.
Нажмите на изображение, чтобы увидеть в полный размер  
1 шт.
Нажмите на изображение, чтобы увидеть в полный размер  
1 шт.
Нажмите на изображение, чтобы увидеть в полный размер  
1 шт.
Нажмите на изображение, чтобы увидеть в полный размер  
1 шт.
Нажмите на изображение, чтобы увидеть в полный размер  
1 шт.
Нажмите на изображение, чтобы увидеть в полный размер  
1 шт.
Нажмите на изображение, чтобы увидеть в полный размер  
1 шт.
Нажмите на изображение, чтобы увидеть в полный размер  
1 шт.
Нажмите на изображение, чтобы увидеть в полный размер  
1 шт.
Нажмите на изображение, чтобы увидеть в полный размер  
1 шт.
Нажмите на изображение, чтобы увидеть в полный размер  
1 шт.
Нажмите на изображение, чтобы увидеть в полный размер  
1 шт.
Нажмите на изображение, чтобы увидеть в полный размер  
1 шт.
КУБКИ

СТАЖ

МЕДАЛИ
Награды:164

За активную помощь проекту (5) Лучший по количеству кубков (1) За отличные раздачи и качество (108) За подробное оформление раздач (4) За отличные комментарии (7) Почётный форумчанин (2) Верный Сид (33) За участие в конкурсах/играх (2) 3 место в конкурсах/играх (1)

Аватара пользователя
Тортуга
filbi1976
Администратор-Корсар
Раздачи группы KORSAR разрешено перезаливать спустя 7 дней после публикации и с обязательным добавлением банера
  • Торрент
Для скачивания торрента необходимо зарегистрироваться или войти на трекер.

Сообщение verybigpapa » 22 май 2020, 23:18

Отличный фильм! :good: :10 balov: Уважаемый filbi1976, большое спасибо. :hi: :respect:
Улыбайтесь, господа! Улыбайтесь!
КУБКИ

СТАЖ

МЕДАЛИ
Награды:67

Пожизненный VIP+ (1) За активную помощь проекту (26) Лучший по количеству кубков (9) За отличные раздачи и качество (1) За отличные комментарии (11) Почётный форумчанин (1) Верный Сид (18)

Аватара пользователя
СССР
verybigpapa
Заслуженный Корсар-Вип+

Сообщение chub911 » 23 май 2020, 13:50

verybigpapa писал(а):Отличный фильм! :good: :10 balov: Уважаемый filbi1976, большое спасибо. :hi: :respect:

Неужели дождались в качестве!? Благодарим!!! :hi:
КУБКИ

СТАЖ

МЕДАЛИ
Награды:4

За помощь проекту в 100 рублей (1) Верный Сид (3)

Аватара пользователя
Kazakhstan
chub911
Мини VIP-100

Сообщение федоров сергей » 23 май 2020, 14:16

Уважаемый filbi1976, большое спасибо за выполненный заказ. Отличный фильм, красивый!
КУБКИ

СТАЖ

МЕДАЛИ
Награды:3

Пожизненный VIP+ (1) За активную помощь проекту (1) Почётный форумчанин (1)

Аватара пользователя
федоров сергей
Заслуженный Корсар-Вип+

Сообщение kwazar312 » 23 май 2020, 20:02

На войну с песнями, под венец со слезами, и всё всерьёз, всё до конца.
Считаю этот одним из лучших российских фильмов. Если по порядку, то это великолепная работа режиссера Михалкова, прекрасный актерский состав, удивительное музыкальное оформление и трогающая за душу история, которая могла произойти только в России.Игра Меньшикова — это отдельный рассказ, его игре сопереживаешь на всем протяжении фильма. Также отлично передан патриотизм, наивность и романтичность молодых юнкеров.
Смотря это кино,мы погружаемся в эпоху еще цветущей империи, веры в царя, высоких моральных ценностей, в эпоху когда честь, долг, достоинство русских офицеров и людей были не просто словами, а являлись неотъемлемой частью
жизни.
Уважаемый filbi1976,спасибо за фильм.Большое спасибо за---
Шедевр российской кинематографии.
:hi: :10 balov: :good:
КУБКИ

СТАЖ

МЕДАЛИ
Награды:144

Пожизненный VIP+ (2) За активную помощь проекту (14) Лучший по количеству кубков (45) За отличные раздачи и качество (3) За отличные комментарии (24) Почётный форумчанин (1) Верный Сид (49) За участие в конкурсах/играх (6)

Аватара пользователя
kwazar312
Заслуженный Корсар-Вип+


Вернуться в Наше современное кино



Uptime по данным Ping-Admin.Ru - сервиса мониторинга доступности сайтов
Рейтинг@Mail.ru