logo
Международный русскоязычный
торрент-трекер
Menu
Doublon
Поделиться с друзьями: 
Голосуй за Корсар и получи 500 дублонов
Рейтинг торрент трекеров - UpTracker.ru

Схватка / Heat (1995, Боевик, триллер, драма, криминал, BDRip-HEVC 1080p) - KORSAR | JPN Transfer

Сообщение Cthulhu » 05 янв 2020, 18:08

Название: Схватка
Оригинальное название: Heat
Год выхода: 1995
Жанр: Боевик, триллер, драма, криминал
Режиссер: Майкл Манн
В ролях: Аль Пачино, Роберт Де Ниро, Вэл Килмер, Джон Войт, Натали Портман, Том Сайзмор, Дайан Венора, Эми Бреннеман, Эшли Джадд, Майкелти Уильямсон, Уэс Стьюди

О фильме: Нил МакКоли - преступник. Один из лучших, если можно так сказать о преступнике, в Лос-Анджелесе, а быть может, и во всей Америке. И работать с ним вместе почитают за честь супер-профессионалы криминального мира. Но против него выступает Винсент Ханна. Детектив. Один из лучших в Лос-Анджелесе, а быть может, и во всей Америке. У Винсента и Нила очень много общего. Вероятно, общего у них даже больше, чем отличий. Однако они все же стоят по разные стороны закона. Две сильнейшие команды сошлись друг против друга. Только речь идет не о спортивном состязании, а о схватке не на жизнь, а на смерть...



Страна: США
Студия: Warner Bros., Regency Enterprises, Monarchy Enterprises B.V.
Продолжительность: 02:50:27
Перевод: Профессиональный многоголосый, двухголосый, авторский одноголосый

Качество: BDRip-HEVC 1080p
Формат: MKV
Видео: HEVC, 1920x800, 8694 Кбит/сек, 23.976 кадр/сек, 10 бит
Звук:
Аудио1: Русская, AC3 384 Кбит/сек, 6 канала(ов),16bit 48,0 КГц Многоголосый (Twister)
Аудио2: Русская, AC3 384 Кбит/сек, 6 канала(ов),16bit 48,0 КГц Многоголосый (Gemini)
Аудио3: Русская, AC3 640 Кбит/сек, 6 канала(ов),16bit 48,0 КГц Многоголосый (Карусель)
Аудио4: Русская, AC3 224 Кбит/сек, 2 канала(ов),16bit 48,0 КГц Многоголосый (ОРТ)
Аудио5: Русская, AC3 224 Кбит/сек, 2 канала(ов),16bit 48,0 КГц Двухголосый (Ren-TV)
Аудио6: Русская, AC3 640 Кбит/сек, 6 канала(ов),16bit 48,0 КГц Одноголосый (Гаврилов)
Аудио7: Русская, AC3 640 Кбит/сек, 6 канала(ов),16bit 48,0 КГц Одноголосый (Живов)
Аудио8: Русская, AC3 640 Кбит/сек, 6 канала(ов),16bit 48,0 КГц Одноголосый (Гаевский)
Аудио9: Русская, AC3 640 Кбит/сек, 6 канала(ов),16bit 48,0 КГц Одноголосый (Пучков)
Аудио10: Русская, AC3 640 Кбит/сек, 6 канала(ов),16bit 48,0 КГц Одноголосый (Горчаков)
Аудио11: Русская, AC3 640 Кбит/сек, 6 канала(ов),16bit 48,0 КГц Одноголосый (Володарский)
Аудио12: Украинская, AC3 192 Кбит/сек, 2 канала(ов),16bit 48,0 КГц Многоголосый (2+2)
Аудио13: Украинская, AC3 192 Кбит/сек, 2 канала(ов),16bit 48,0 КГц Многоголосый (Новий Канал)
Аудио14: Украинская, AC3 192 Кбит/сек, 2 канала(ов),16bit 48,0 КГц Многоголосый (KINO)
Аудио15: English, AC3 640 Кбит/сек, 6 канала(ов),16bit 48,0 КГц Original
Субтитры: Русские (Twister, Gemini, Goblin), английские, + SDH
Навигация по главам: Есть

x265 [info]: frame I: 2032, Avg QP:17.50 kb/s: 17516.56
x265 [info]: frame P: 35085, Avg QP:18.98 kb/s: 12716.43
x265 [info]: frame B: 208065, Avg QP:20.85 kb/s: 7928.20
x265 [info]: consecutive B-frames: 7.4% 2.8% 6.3% 9.2% 9.2% 29.3% 4.8% 4.5% 3.5% 2.9% 4.7% 12.3% 3.2%

General
Unique ID : 105800236807016220930133170886880945101 (0x4F986269486B0FFF06BF4C8521BE63CD)
Complete name : H:\HEVC4\Схватка - Heat (1995) JPN Transfer BDRip-HEVC 1080p - KORSAR.mkv
Format : Matroska
Format version : Version 4 / Version 2
File size : 20.4 GiB
Duration : 2 h 50 min
Overall bit rate mode : Variable
Overall bit rate : 17.2 Mb/s
Movie name : Heat (1995)_rip_by_Cthulhu
Encoded date : UTC 2020-01-05 14:42:00
Writing application : mkvmerge v37.0.0 ('Leave It') 64-bit
Writing library : libebml v1.3.9 + libmatroska v1.5.2
Cover : Yes
Attachments : cover4.jpg

Video
ID : 1
Format : HEVC
Format/Info : High Efficiency Video Coding
Format profile : Main 10@L4.1@High
Codec ID : V_MPEGH/ISO/HEVC
Duration : 2 h 50 min
Bit rate : 8 694 kb/s
Width : 1 920 pixels
Height : 800 pixels
Display aspect ratio : 2.40:1
Frame rate mode : Constant
Frame rate : 23.976 (24000/1001) FPS
Color space : YUV
Chroma subsampling : 4:2:0
Bit depth : 10 bits
Bits/(Pixel*Frame) : 0.236
Stream size : 10.3 GiB (51%)
Writing library : x265 3.2+5-a3a088a7262f:[Windows][GCC 9.2.0][64 bit] 10bit
Encoding settings : cpuid=1111039 / frame-threads=4 / numa-pools=16 / wpp / no-pmode / no-pme / no-psnr / no-ssim / log-level=2 / input-csp=1 / input-res=1920x800 / interlace=0 / total-frames=245182 / level-idc=41 / high-tier=1 / uhd-bd=0 / ref=5 / no-allow-non-conformance / no-repeat-headers / annexb / no-aud / no-hrd / info / hash=0 / no-temporal-layers / open-gop / min-keyint=23 / keyint=240 / gop-lookahead=0 / bframes=12 / b-adapt=2 / b-pyramid / bframe-bias=0 / rc-lookahead=60 / lookahead-slices=1 / scenecut=40 / radl=0 / no-splice / no-intra-refresh / ctu=32 / min-cu-size=8 / rect / amp / max-tu-size=32 / tu-inter-depth=4 / tu-intra-depth=4 / limit-tu=1 / rdoq-level=2 / dynamic-rd=0.00 / no-ssim-rd / signhide / no-tskip / nr-intra=0 / nr-inter=0 / no-constrained-intra / no-strong-intra-smoothing / max-merge=5 / limit-refs=3 / limit-modes / me=3 / subme=7 / merange=57 / temporal-mvp / no-hme / weightp / weightb / no-analyze-src-pics / deblock=-3:-2 / no-sao / no-sao-non-deblock / rd=6 / selective-sao=0 / no-early-skip / no-rskip / no-fast-intra / no-tskip-fast / no-cu-lossless / no-b-intra / no-splitrd-skip / rdpenalty=0 / psy-rd=2.20 / psy-rdoq=1.15 / no-rd-refine / no-lossless / cbqpoffs=0 / crqpoffs=0 / rc=crf / crf=19.5 / qcomp=0.67 / qpstep=4 / stats-write=0 / stats-read=0 / vbv-maxrate=50000 / vbv-bufsize=50000 / vbv-init=0.9 / crf-max=0.0 / crf-min=0.0 / ipratio=1.40 / pbratio=1.30 / aq-mode=4 / aq-strength=0.80 / no-cutree / zone-count=1 / zones: / start-frame=238366 / end-frame=245181 / qp=36 / no-strict-cbr / qg-size=32 / no-rc-grain / qpmax=69 / qpmin=0 / no-const-vbv / sar=1 / overscan=0 / videoformat=5 / range=0 / colorprim=1 / transfer=1 / colormatrix=1 / chromaloc=0 / display-window=0 / cll=0,0 / min-luma=0 / max-luma=1023 / log2-max-poc-lsb=8 / vui-timing-info / vui-hrd-info / slices=1 / no-opt-qp-pps / no-opt-ref-list-length-pps / no-multi-pass-opt-rps / scenecut-bias=0.05 / no-opt-cu-delta-qp / no-aq-motion / no-hdr / no-hdr-opt / no-dhdr10-opt / no-idr-recovery-sei / analysis-reuse-level=5 / scale-factor=0 / refine-intra=0 / refine-inter=0 / refine-mv=1 / refine-ctu-distortion=0 / no-limit-sao / ctu-info=0 / no-lowpass-dct / refine-analysis-type=0 / copy-pic=1 / max-ausize-factor=1.0 / no-dynamic-refine / no-single-sei / no-hevc-aq / no-svt / no-field / qp-adaptation-range=1.00
Language : English
Default : Yes
Forced : No
Color range : Limited
Color primaries : BT.709
Transfer characteristics : BT.709
Matrix coefficients : BT.709

Audio #1
ID : 2
Format : AC-3
Format/Info : Audio Coding 3
Commercial name : Dolby Digital
Codec ID : A_AC3
Duration : 2 h 50 min
Bit rate mode : Constant
Bit rate : 384 kb/s
Channel(s) : 6 channels
Channel layout : L R C LFE Ls Rs
Sampling rate : 48.0 kHz
Frame rate : 31.250 FPS (1536 SPF)
Bit depth : 16 bits
Compression mode : Lossy
Stream size : 468 MiB (2%)
Title : MVO Twister
Language : Russian
Service kind : Complete Main
Default : Yes
Forced : No

Audio #2
ID : 3
Format : AC-3
Format/Info : Audio Coding 3
Commercial name : Dolby Digital
Codec ID : A_AC3
Duration : 2 h 50 min
Bit rate mode : Constant
Bit rate : 384 kb/s
Channel(s) : 6 channels
Channel layout : L R C LFE Ls Rs
Sampling rate : 48.0 kHz
Frame rate : 31.250 FPS (1536 SPF)
Bit depth : 16 bits
Compression mode : Lossy
Stream size : 468 MiB (2%)
Title : MVO Gemini
Language : Russian
Service kind : Complete Main
Default : No
Forced : No

Audio #3
ID : 4
Format : DTS XLL
Format/Info : Digital Theater Systems
Commercial name : DTS-HD Master Audio
Codec ID : A_DTS
Duration : 2 h 50 min
Bit rate mode : Variable
Bit rate : 2 190 kb/s
Channel(s) : 6 channels
Channel layout : C L R Ls Rs LFE
Sampling rate : 48.0 kHz
Frame rate : 93.750 FPS (512 SPF)
Bit depth : 16 bits
Compression mode : Lossless
Stream size : 2.61 GiB (13%)
Title : MVO Карусель
Language : Russian
Default : No
Forced : No

Audio #4
ID : 5
Format : AC-3
Format/Info : Audio Coding 3
Commercial name : Dolby Digital
Codec ID : A_AC3
Duration : 2 h 50 min
Bit rate mode : Constant
Bit rate : 224 kb/s
Channel(s) : 2 channels
Channel layout : L R
Sampling rate : 48.0 kHz
Frame rate : 31.250 FPS (1536 SPF)
Bit depth : 16 bits
Compression mode : Lossy
Stream size : 273 MiB (1%)
Title : MVO ОРТ
Language : Russian
Service kind : Complete Main
Default : No
Forced : No

Audio #5
ID : 6
Format : AC-3
Format/Info : Audio Coding 3
Commercial name : Dolby Digital
Codec ID : A_AC3
Duration : 2 h 50 min
Bit rate mode : Constant
Bit rate : 224 kb/s
Channel(s) : 2 channels
Channel layout : L R
Sampling rate : 48.0 kHz
Frame rate : 31.250 FPS (1536 SPF)
Bit depth : 16 bits
Compression mode : Lossy
Stream size : 273 MiB (1%)
Title : DVO Рен-ТВ
Language : Russian
Service kind : Complete Main
Default : No
Forced : No

Audio #6
ID : 7
Format : AC-3
Format/Info : Audio Coding 3
Commercial name : Dolby Digital
Codec ID : A_AC3
Duration : 2 h 50 min
Bit rate mode : Constant
Bit rate : 640 kb/s
Channel(s) : 6 channels
Channel layout : L R C LFE Ls Rs
Sampling rate : 48.0 kHz
Frame rate : 31.250 FPS (1536 SPF)
Bit depth : 16 bits
Compression mode : Lossy
Stream size : 780 MiB (4%)
Title : AVO Гаврилов
Language : Russian
Service kind : Complete Main
Default : No
Forced : No

Audio #7
ID : 8
Format : AC-3
Format/Info : Audio Coding 3
Commercial name : Dolby Digital
Codec ID : A_AC3
Duration : 2 h 50 min
Bit rate mode : Constant
Bit rate : 640 kb/s
Channel(s) : 6 channels
Channel layout : L R C LFE Ls Rs
Sampling rate : 48.0 kHz
Frame rate : 31.250 FPS (1536 SPF)
Bit depth : 16 bits
Compression mode : Lossy
Stream size : 780 MiB (4%)
Title : AVO Живов
Language : Russian
Service kind : Complete Main
Default : No
Forced : No

Audio #8
ID : 9
Format : AC-3
Format/Info : Audio Coding 3
Commercial name : Dolby Digital
Codec ID : A_AC3
Duration : 2 h 50 min
Bit rate mode : Constant
Bit rate : 640 kb/s
Channel(s) : 6 channels
Channel layout : L R C LFE Ls Rs
Sampling rate : 48.0 kHz
Frame rate : 31.250 FPS (1536 SPF)
Bit depth : 16 bits
Compression mode : Lossy
Stream size : 780 MiB (4%)
Title : AVO Гаевский
Language : Russian
Service kind : Complete Main
Default : No
Forced : No

Audio #9
ID : 10
Format : AC-3
Format/Info : Audio Coding 3
Commercial name : Dolby Digital
Codec ID : A_AC3
Duration : 2 h 50 min
Bit rate mode : Constant
Bit rate : 640 kb/s
Channel(s) : 6 channels
Channel layout : L R C LFE Ls Rs
Sampling rate : 48.0 kHz
Frame rate : 31.250 FPS (1536 SPF)
Bit depth : 16 bits
Compression mode : Lossy
Stream size : 780 MiB (4%)
Title : AVO Пучков
Language : Russian
Service kind : Complete Main
Default : No
Forced : No

Audio #10
ID : 11
Format : AC-3
Format/Info : Audio Coding 3
Commercial name : Dolby Digital
Codec ID : A_AC3
Duration : 2 h 50 min
Bit rate mode : Constant
Bit rate : 640 kb/s
Channel(s) : 6 channels
Channel layout : L R C LFE Ls Rs
Sampling rate : 48.0 kHz
Frame rate : 31.250 FPS (1536 SPF)
Bit depth : 16 bits
Compression mode : Lossy
Stream size : 780 MiB (4%)
Title : AVO Горчаков
Language : Russian
Service kind : Complete Main
Default : No
Forced : No

Audio #11
ID : 12
Format : AC-3
Format/Info : Audio Coding 3
Commercial name : Dolby Digital
Codec ID : A_AC3
Duration : 2 h 50 min
Bit rate mode : Constant
Bit rate : 640 kb/s
Channel(s) : 6 channels
Channel layout : L R C LFE Ls Rs
Sampling rate : 48.0 kHz
Frame rate : 31.250 FPS (1536 SPF)
Bit depth : 16 bits
Compression mode : Lossy
Stream size : 780 MiB (4%)
Title : AVO Володарский
Language : Russian
Service kind : Complete Main
Default : No
Forced : No

Audio #12
ID : 13
Format : AC-3
Format/Info : Audio Coding 3
Commercial name : Dolby Digital
Codec ID : A_AC3
Duration : 2 h 50 min
Bit rate mode : Constant
Bit rate : 192 kb/s
Channel(s) : 2 channels
Channel layout : L R
Sampling rate : 48.0 kHz
Frame rate : 31.250 FPS (1536 SPF)
Bit depth : 16 bits
Compression mode : Lossy
Stream size : 234 MiB (1%)
Title : MVO 2+2
Language : Ukrainian
Service kind : Complete Main
Default : No
Forced : No

Audio #13
ID : 14
Format : AC-3
Format/Info : Audio Coding 3
Commercial name : Dolby Digital
Codec ID : A_AC3
Duration : 2 h 50 min
Bit rate mode : Constant
Bit rate : 192 kb/s
Channel(s) : 2 channels
Channel layout : L R
Sampling rate : 48.0 kHz
Frame rate : 31.250 FPS (1536 SPF)
Bit depth : 16 bits
Compression mode : Lossy
Stream size : 234 MiB (1%)
Title : MVO Новий Канал
Language : Ukrainian
Service kind : Complete Main
Default : No
Forced : No

Audio #14
ID : 15
Format : AC-3
Format/Info : Audio Coding 3
Commercial name : Dolby Digital
Codec ID : A_AC3
Duration : 2 h 50 min
Bit rate mode : Constant
Bit rate : 192 kb/s
Channel(s) : 2 channels
Channel layout : L R
Sampling rate : 48.0 kHz
Frame rate : 31.250 FPS (1536 SPF)
Bit depth : 16 bits
Compression mode : Lossy
Stream size : 234 MiB (1%)
Title : MVO КІНО
Language : Ukrainian
Service kind : Complete Main
Default : No
Forced : No

Audio #15
ID : 16
Format : AC-3
Format/Info : Audio Coding 3
Commercial name : Dolby Digital
Codec ID : A_AC3
Duration : 2 h 50 min
Bit rate mode : Constant
Bit rate : 640 kb/s
Channel(s) : 6 channels
Channel layout : L R C LFE Ls Rs
Sampling rate : 48.0 kHz
Frame rate : 31.250 FPS (1536 SPF)
Bit depth : 16 bits
Compression mode : Lossy
Stream size : 780 MiB (4%)
Language : English
Service kind : Complete Main
Default : No
Forced : No

Text #1
ID : 17
Format : UTF-8
Codec ID : S_TEXT/UTF8
Codec ID/Info : UTF-8 Plain Text
Duration : 2 h 43 min
Bit rate : 61 b/s
Count of elements : 1317
Stream size : 74.0 KiB (0%)
Title : Twister
Language : Russian
Default : No
Forced : No

Text #2
ID : 18
Format : UTF-8
Codec ID : S_TEXT/UTF8
Codec ID/Info : UTF-8 Plain Text
Duration : 2 h 44 min
Bit rate : 51 b/s
Count of elements : 1364
Stream size : 61.5 KiB (0%)
Title : Gemini
Language : Russian
Default : No
Forced : No

Text #3
ID : 19
Format : UTF-8
Codec ID : S_TEXT/UTF8
Codec ID/Info : UTF-8 Plain Text
Duration : 2 h 43 min
Bit rate : 64 b/s
Count of elements : 1316
Stream size : 77.9 KiB (0%)
Title : Goblin
Language : Russian
Default : No
Forced : No

Text #4
ID : 20
Format : UTF-8
Codec ID : S_TEXT/UTF8
Codec ID/Info : UTF-8 Plain Text
Duration : 2 h 41 min
Bit rate : 46 b/s
Count of elements : 1463
Stream size : 55.3 KiB (0%)
Language : English
Default : No
Forced : No

Text #5
ID : 21
Format : UTF-8
Codec ID : S_TEXT/UTF8
Codec ID/Info : UTF-8 Plain Text
Duration : 2 h 41 min
Bit rate : 48 b/s
Count of elements : 1548
Stream size : 58.0 KiB (0%)
Title : SDH
Language : English
Default : No
Forced : No

Menu
00:00:00.000 : en:Tools for the Job (Credits)
00:04:22.512 : en:Attention in the Morning
00:07:04.007 : en:Countdown to a Heist
00:10:07.607 : en:Quick on the Trigger
00:13:35.231 : en:Neil and Nate
00:14:52.225 : en:Vincent in Charge
00:18:21.058 : en:Rid of Waingro
00:21:03.512 : en:Three Households Under Strain
00:25:23.939 : en:A Connection: Neil and Eady
00:31:59.501 : en:Albert Irks Vincent's Ire
00:34:56.303 : en:Deals in the Works
00:37:55.273 : en:No Attachments
00:40:48.029 : en:Rules of the Games
00:44:34.088 : en:A Lead on Slick
00:49:21.917 : en:Shootout at the Drive-in
00:52:02.119 : en:Dead Man Talking
00:52:56.924 : en:An Evening Out
00:56:03.569 : en:The Grim Reaper Visits
00:58:10.320 : en:A Mother's Pain
01:01:41.698 : en:The Mess Vincent Leaves
01:04:29.741 : en:Couples Seeking Comfort
01:08:27.186 : en:Walking Away Under Watch
01:14:49.860 : en:Everybody's In
01:17:15.422 : en:In Each Other's Sights
01:21:57.579 : en:A Hit-and-Miss Guy; Going Out
01:25:22.367 : en:Invitation to Coffee
01:28:50.617 : en:A Couple of Regular Fellows
01:35:08.536 : en:Where These People Are
01:36:59.272 : en:New Afflictions
01:41:19.282 : en:The Heist Begins
01:45:05.382 : en:Tipped Off
01:46:39.059 : en:Under Fire
01:52:35.082 : en:Cheritto's Last Stand
01:53:56.079 : en:Fallout
01:56:49.252 : en:The Source of the Leak
01:59:18.943 : en:Revenge
02:02:51.030 : en:Charlene's Choice
02:07:24.220 : en:It Will Be Different
02:10:05.589 : en:A Means Toward Closure
02:12:08.629 : en:No Point
02:14:45.452 : en:With a Wave
02:19:26.316 : en:TV to Go
02:21:44.246 : en:Not Letting Go of Lauren
02:25:33.350 : en:Home Free... Nearly
02:28:01.998 : en:Closing In
02:30:45.411 : en:"I'm Not What You Want, Justine"
02:33:03.633 : en:Looking at Death
02:35:05.796 : en:One Last Look
02:38:20.449 : en:Runaway Cat-and-Mouse
02:40:25.658 : en:In the Light
02:43:51.321 : en:Hand in Hand
02:45:47.938 : en:End Credits




Автор: Cthulhu
Просьба отключить блокировщики рекламы на странице скриншотов по адресу: http://3.lostpic.net/, этим Вы поможете существованию проекта. Заранее спасибо!
КУБКИ

СТАЖ

МЕДАЛИ
Награды:97

За активную помощь проекту (18) Лучший по количеству кубков (1) За отличные раздачи и качество (52) За отличные комментарии (6) Почётный форумчанин (2) Верный Сид (17)

Аватара пользователя
СССР
Cthulhu
Помощник Администратора-Корсар
Раздачи группы KORSAR разрешено перезаливать спустя 7 дней после публикации и с обязательным добавлением банера
  • Торрент
Для скачивания торрента необходимо зарегистрироваться или войти на трекер.

Сообщение filbi1976 » 05 янв 2020, 22:05

Фильм всех времён и народов. :10 balov:
Алекс, спасибо! :-drinks:
The Show Must Go On
Посмотреть товар в профиле пользователя

Нажмите на изображение, чтобы увидеть в полный размер  
1 шт.
Нажмите на изображение, чтобы увидеть в полный размер  
1 шт.
Нажмите на изображение, чтобы увидеть в полный размер  
1 шт.
Нажмите на изображение, чтобы увидеть в полный размер  
1 шт.
Нажмите на изображение, чтобы увидеть в полный размер  
1 шт.
Нажмите на изображение, чтобы увидеть в полный размер  
1 шт.
Нажмите на изображение, чтобы увидеть в полный размер  
1 шт.
Нажмите на изображение, чтобы увидеть в полный размер  
1 шт.
Нажмите на изображение, чтобы увидеть в полный размер  
1 шт.
Нажмите на изображение, чтобы увидеть в полный размер  
1 шт.
Нажмите на изображение, чтобы увидеть в полный размер  
1 шт.
Нажмите на изображение, чтобы увидеть в полный размер  
1 шт.
Нажмите на изображение, чтобы увидеть в полный размер  
1 шт.
Нажмите на изображение, чтобы увидеть в полный размер  
1 шт.
Нажмите на изображение, чтобы увидеть в полный размер  
1 шт.
КУБКИ

СТАЖ

МЕДАЛИ
Награды:152

За активную помощь проекту (5) За отличные раздачи и качество (100) За подробное оформление раздач (3) За отличные комментарии (7) Почётный форумчанин (2) Верный Сид (31) За участие в конкурсах/играх (2) 3 место в конкурсах/играх (1)

Аватара пользователя
Тортуга
filbi1976
Администратор-Корсар

Сообщение poletov » 26 мар 2020, 03:50

Качественный боевик с прекрасными актерами :10 balov: :good:
КУБКИ

СТАЖ

МЕДАЛИ
Награды:14

За отличные раздачи и качество (1) За отличные комментарии (10) Почётный форумчанин (2) Верный Сид (1)

Аватара пользователя
Russia
poletov
Заслуженный Корсар


Вернуться в Фильмы HEVC (HEVC Video)



Uptime по данным Ping-Admin.Ru - сервиса мониторинга доступности сайтов
Рейтинг@Mail.ru