logo
Международный русскоязычный
торрент-трекер
Menu

Doublon
Поделиться с друзьями: 
Голосуй за Корсар и получи 150 дублонов
Рейтинг торрент трекеров - UpTracker.ru

Шпионка / Alias / Сезон 1 / Серии 1-22 (22) (2001, драма, боевик, WEB-DL 720p)

Сообщение Korsar » 01 дек 2016, 17:14

Шпионка / Alias

Год выпуска • 2001
Страна • США
Жанр • Боевик, драма
Озвучание• Профессиональный (многоголосый, закадровый) "ОРТ"
• Профессиональный (многоголосый, закадровый) "SET"
Режиссёр • Дж.Дж.Абрамс
В ролях • Дженнифер Гарнер, Рон Рифкин, Майкл Вартан, Брэдли Купер, Мэррин Данги, Карл Ламбли, Кевин Уайзман и др.

Описание • Переезды по всему миру, борьба с "плохими парнями", двойная жизнь и опасность, подстерегающая на каждом шагу. Для Сидни Бристоу (Дженифер Гарнер) это - обычный день на еe необычной работе. Она - агент сверхсекретного подразделения - группы СД-6. Однажды от своего отца Джека (Виктор Гарбер) Сидни узнаeт страшную правду: оказывается, она работает на международную шпионскую организацию. Когда жених Сидни узнает о том, что она - шпионка, СД-6 убивает его. После этого Сидни дает себе слово уничтожить организацию. И становится двойным агентом ЦРУ. Теперь она должна хранить в строжайшем секрете двойственность своего существования и от партнeров по СД-6, и от своих близких.

Продолжительность: ~ 44 Мин.
Качество: iTunes WEB-DL 720p
Формат: MKV
Видео: MPEG-4 AVC / ~ 4000 kbps / 1280:720p / 23.976 fps / 16:9 / ~ 0.180 bit/pixel / High Level 3.1
Аудио:
Русский / Dolby Digital 2.0 / 48 kHz / 192 kbps
Русский / Dolby Digital 2.0 / 48 kHz / 192 kbps
English / Dolby Digital 5.1 / 48 kHz / 384 kbps
Субтитры:
SRT / English



Общее
Уникальный идентификатор : 217986517741953664076283211127153104582 (0xA3FEAD1B63EAAABF9F1225A3481616C6)
Полное имя : E:\Alias S01 WEB-DL 720p (ОРТ+SET)\Alias S01E01 WEB-DL 720p (ОРТ+SET).mkv
Формат : Matroska
Версия формата : Version 2
Размер файла : 2,24 Гбайт
Продолжительность : 1 ч. 6 м.
Общий поток : 4829 Кбит/сек
Дата кодирования : UTC 2013-06-24 23:37:42
Программа кодирования : mkvmerge v4.0.0 ('The Stars were mine') сборка от Jun 6 2010 16:18:42
Библиотека кодирования : libebml v1.0.0 + libmatroska v1.0.0
Видео
Идентификатор : 1
Формат : AVC
Формат/Информация : Advanced Video Codec
Профиль формата : High@L3.1
Параметр CABAC формата : Нет
Параметр ReFrames формата : 2 кадра
Идентификатор кодека : V_MPEG4/ISO/AVC
Продолжительность : 1 ч. 6 м.
Битрейт : 3965 Кбит/сек
Ширина : 1280 пикселей
Высота : 720 пикселей
Соотношение сторон : 16:9
Частота кадров : 23,976 кадра/сек
Цветовое пространство : YUV
Субдискретизация насыщенности : 4:2:0
Битовая глубина : 8 бит
Тип развёртки : Прогрессивная
Бит/(Пиксели*Кадры) : 0.179
Размер потока : 1,84 Гбайт (82%)
Язык : English
Default : Нет
Forced : Нет
Основные цвета : BT.709-5, BT.1361, IEC 61966-2-4, SMPTE RP177
Характеристики трансфера : BT.709-5, BT.1361
Коэффициенты матрицы : BT.709-5, BT.1361, IEC 61966-2-4 709, SMPTE RP177

Аудио #1
Идентификатор : 2
Формат : AC-3
Формат/Информация : Audio Coding 3
Расширение режима : CM (complete main)
Параметр Endianness формата : Big
Идентификатор кодека : A_AC3
Продолжительность : 1 ч. 6 м.
Вид битрейта : Постоянный
Битрейт : 192 Кбит/сек
Каналы : 2 канала
Расположение каналов : Front: L R
Частота : 48,0 КГц
Битовая глубина : 16 бит
Метод сжатия : С потерями
Размер потока : 91,1 Мбайт (4%)
Заголовок : ОРТ
Язык : Russian
Default : Да
Forced : Нет

Аудио #2
Идентификатор : 3
Формат : AC-3
Формат/Информация : Audio Coding 3
Расширение режима : CM (complete main)
Параметр Endianness формата : Big
Идентификатор кодека : A_AC3
Продолжительность : 1 ч. 6 м.
Вид битрейта : Постоянный
Битрейт : 192 Кбит/сек
Каналы : 2 канала
Расположение каналов : Front: L R
Частота : 48,0 КГц
Битовая глубина : 16 бит
Метод сжатия : С потерями
Размер потока : 91,1 Мбайт (4%)
Заголовок : SET
Язык : Russian
Default : Нет
Forced : Нет

Аудио #3
Идентификатор : 4
Формат : AC-3
Формат/Информация : Audio Coding 3
Расширение режима : CM (complete main)
Параметр Endianness формата : Big
Идентификатор кодека : A_AC3
Продолжительность : 1 ч. 6 м.
Вид битрейта : Постоянный
Битрейт : 384 Кбит/сек
Каналы : 6 каналов
Расположение каналов : Front: L C R, Side: L R, LFE
Частота : 48,0 КГц
Битовая глубина : 16 бит
Метод сжатия : С потерями
Размер потока : 182 Мбайт (8%)
Заголовок : Eng
Язык : English
Default : Нет
Forced : Нет

Текст
Идентификатор : 5
Формат : UTF-8
Идентификатор кодека : S_TEXT/UTF8
Идентификатор кодека/Информация : UTF-8 Plain Text
Язык : English
Default : Нет
Forced : Нет

Боцман
Аватара пользователя
Korsar
Помощник Администратора-Корсар
 
 

Награды: 28
За помощь проекту (1) За отличные раздачи и качество (12) За подробное оформление раздач (1) За отличные комментарии (1) Верный Сид (9) За участие в конкурсах (2)
  • Торрент
Для скачивания торрента необходимо зарегистрироваться или войти на трекер.

Вернуться в Зарубежные сериалы (HD Video)



Uptime по данным Ping-Admin.Ru - сервиса мониторинга доступности сайтов
Рейтинг@Mail.ru