logo
Международный русскоязычный
торрент-трекер
Menu
Doublon
Поделиться с друзьями: 
Голосуй за Корсар и получи 500 дублонов
Рейтинг торрент трекеров - UpTracker.ru

Шпион, который меня любил / The Spy Who Loved Me (1977, боевик, триллер, приключения, BDRip-HEVC 1080p) | 50th Anniversary Edition

Непрочитанное сообщение OldGamer » 11 авг 2019, 17:52

Название: Шпион, который меня любил
Оригинальное название: The Spy Who Loved Me
Год выхода: 1977
Жанр: боевик, триллер, приключения
Режиссер: Льюис Гилберт
В ролях: Роджер Мур, Барбара Бах, Курд Юргенс, Ричард Кил, Кэролайн Манро, Уолтер Готелл, Джеффри Кин, Бернард Ли, Джордж Бейкер, Майкл Билингтон

О фильме: Спасая мир от безумного злодея Стромберга, который разрабатывает план по уничтожению жизни на земле с помощью сверхмощного звука, Джеймс Бонд знакомится с очаровательной русской разведчицей. Вместе они вступают в неравную схватку с негодяем и его преданным слугой Джозом.

Это по-настоящему гигантского размера детина с железными зубами, которыми он с легкостью перекусывает толстый стальной трос. Для того чтобы уравнять силы Бонду предоставляют абсолютно эксклюзивный спортивный автомобиль «Лотос», который может плавать под водой и стрелять разными видами ракет.



Страна: Великобритания
Студия: United Artists
Продолжительность: 02:05:40
Перевод: дублированный

Качество: BDRip-HEVC 1080p
Кодек: HEVC (x265)
Видео: 1920x816 (2,35:1), 16,8 Мбит/сек, 0.448 бит/(Пиксели*Кадры), 23.976 (24000/1001) кадр/сек, HEVC (Main10@L.4.1@High) 10 бит
Звук:
Аудио1: AC3, 6 ch, 640 Kbps - русский Дублированный
Аудио2: AC3, 6 ch, 640 Kbps - english Original
Субтитры: Русские полные (SRT), English full (SRT)
Навигация по главам: Есть

x265 info: frame I: 771, Avg QP:18.20 kb/s: 32804.68
x265 info: frame P: 27284, Avg QP:19.44 kb/s: 26414.88
x265 info: frame B: 152737, Avg QP:21.39 kb/s: 15042.50
x265 info: Weighted P-Frames: Y:14.0% UV:10.6%
x265 info: Weighted B-Frames: Y:14.1% UV:8.8%
x265 info: consecutive B-frames: 1.7% 2.0% 4.3% 21.4% 11.5% 22.7% 8.2% 10.3% 4.4% 4.3% 2.3% 1.9% 1.2% 1.0% 0.9% 0.9% 1.1%
x265 info: encoded 180792 frames in 347374.40s (0.52 fps), 16834.50 kb/s, Avg QP:21.08

Формат : Matroska
Версия формата : Version 4
Размер файла : 15,9 Гбайт
Продолжительность : 2 ч. 5 м.
Общий поток : 18,1 Мбит/сек
Название фильма : Шпион, который меня любил
Описание : Спасая мир от безумного злодея Стромберга, который разрабатывает план по уничтожению жизни на земле с помощью сверхмощного звука, Джеймс Бонд знакомится с очаровательной русской разведчицей. Вместе они вступают в неравную схватку с негодяем и его преданным слугой Джозом. Это по-настоящему гигантского размера детина с железными зубами, которыми он с легкостью перекусывает толстый стальной трос. Для того, чтобы уравнять силы, Бонду предоставляют абсолютно эксклюзивный спортивный автомобиль «Лотос»
Дата кодирования : UTC 2019-08-11 14:12:00
Программа кодирования : mkvmerge v36.0.0 ('Is That Jazz?') 64-bit
Библиотека кодирования : libebml v1.3.9 + libmatroska v1.5.2 / Lavf57.71.100
Примечание : Rip by OldGamer
Attachments : poster.jpg / backdrop.jpg
ACTORS : Roger Moore, Barbara Bach, Curd Jürgens, Richard Kiel, Caroline Munro, Walter Gotell, Geoffrey Keen, Bernard Lee, George Baker, Michael Billington, Desmond Llewelyn, Vernon Dobtcheff, Lois Maxwell, Sydney Tafler, Olga Bisera, Edward de Souza, Valerie Leon, Nadim Sawalha, Sue Vanner, Eva Rueber-Staier, Kevin McNally, Sean Bury, Milton Reid, Cyril Shaps, Milo Sperber, Albert Moses, Shane Rimmer, Bryan Marshall, George Roubicek
COUNTRY : United Kingdom, United States
DATE : 1977-07-07
DIRECTOR : Lewis Gilbert
ENCODING_INFO : MATROSKA,WEBM > MKV / H264 > X265 CRF 19.4 Very Slow / AC3 > COPY Безопасное / AC3 > COPY Безопасное
GENRE : Приключения, Боевик, Триллер
HD_VIDEO : 1
ITUNEXTC : mpaa|PG|200|
Язык : und
MEDIA_TYPE : 9
ORIGINAL_TITLE : The Spy Who Loved Me
PRODUCER : Albert R. Broccoli, William P. Cartlidge
PUBLISHER : United Artists, Eon Productions, Danjaq
RATING : 6.70
WRITER : Christopher Wood, Richard Maibaum

Видео
Идентификатор : 1
Формат : HEVC
Формат/Информация : High Efficiency Video Coding
Профиль формата : Main 10@L4.1@High
Идентификатор кодека : V_MPEGH/ISO/HEVC
Продолжительность : 2 ч. 5 м.
Битрейт : 16,8 Мбит/сек
Ширина : 1920 пикселей
Высота : 816 пикселей
Соотношение сторон : 2,35:1
Режим частоты кадров : Постоянный
Частота кадров : 23,976 (24000/1001) кадра/сек
Цветовое пространство : YUV
Субдискретизация насыщенности : 4:2:0
Битовая глубина : 10 бит
Бит/(Пиксели*Кадры) : 0.448
Размер потока : 14,8 Гбайт (93%)
Заголовок : The Spy Who Loved Me / Rip by OldGamer
Библиотека кодирования : x265 2.9+9-f74003e88622:[Mac OS X][clang 10.0.0][64 bit] 10bit
Настройки программы : cpuid=1111039 / frame-threads=14 / wpp / no-pmode / no-pme / no-psnr / no-ssim / log-level=3 / input-csp=1 / input-res=1920x816 / interlace=0 / total-frames=0 / level-idc=41 / high-tier=1 / uhd-bd=0 / ref=5 / allow-non-conformance / no-repeat-headers / annexb / no-aud / no-hrd / info / hash=0 / no-temporal-layers / open-gop / min-keyint=23 / keyint=240 / gop-lookahead=0 / bframes=16 / b-adapt=2 / b-pyramid / bframe-bias=0 / rc-lookahead=60 / lookahead-slices=5 / scenecut=40 / radl=0 / no-intra-refresh / ctu=64 / min-cu-size=8 / rect / amp / max-tu-size=32 / tu-inter-depth=4 / tu-intra-depth=4 / limit-tu=1 / rdoq-level=2 / dynamic-rd=0.00 / no-ssim-rd / signhide / no-tskip / nr-intra=0 / nr-inter=0 / no-constrained-intra / no-strong-intra-smoothing / max-merge=5 / limit-refs=2 / no-limit-modes / me=3 / subme=7 / merange=57 / temporal-mvp / weightp / weightb / no-analyze-src-pics / deblock=-3:-3 / no-sao / no-sao-non-deblock / rd=6 / no-early-skip / rskip / no-fast-intra / no-tskip-fast / no-cu-lossless / no-b-intra / no-splitrd-skip / rdpenalty=0 / psy-rd=2.00 / psy-rdoq=1.00 / no-rd-refine / no-lossless / cbqpoffs=0 / crqpoffs=0 / rc=crf / crf=19.4 / qcomp=0.70 / qpstep=4 / stats-write=0 / stats-read=0 / vbv-maxrate=50000 / vbv-bufsize=50000 / vbv-init=0.9 / crf-max=0.0 / crf-min=0.0 / ipratio=1.40 / pbratio=1.30 / aq-mode=2 / aq-strength=0.80 / no-cutree / zone-count=0 / no-strict-cbr / qg-size=32 / no-rc-grain / qpmax=69 / qpmin=0 / no-const-vbv / sar=1 / overscan=0 / videoformat=5 / range=0 / colorprim=2 / transfer=2 / colormatrix=2 / chromaloc=0 / display-window=0 / max-cll=0,0 / min-luma=0 / max-luma=1023 / log2-max-poc-lsb=8 / vui-timing-info / vui-hrd-info / slices=1 / no-opt-qp-pps / no-opt-ref-list-length-pps / no-multi-pass-opt-rps / scenecut-bias=0.00 / no-opt-cu-delta-qp / aq-motion / no-hdr / no-hdr-opt / no-dhdr10-opt / no-idr-recovery-sei / analysis-reuse-level=5 / scale-factor=0 / refine-intra=0 / refine-inter=0 / refine-mv=0 / no-limit-sao / ctu-info=0 / no-lowpass-dct / refine-mv-type=0 / copy-pic=1 / max-ausize-factor=1.0 / no-dynamic-refine / no-single-sei
Язык : English
Default : Да
Forced : Нет
Цветовой диапазон : Limited

Аудио #1
Идентификатор : 2
Формат : AC-3
Формат/Информация : Audio Coding 3
Коммерческое название : Dolby Digital
Идентификатор кодека : A_AC3
Продолжительность : 2 ч. 5 м.
Вид битрейта : Постоянный
Битрейт : 640 Кбит/сек
Каналы : 6 каналов
Channel layout : L R C LFE Ls Rs
Частота : 48,0 КГц
Частота кадров : 31,250 кадров/сек (1536 SPF)
Битовая глубина : 16 бит
Метод сжатия : С потерями
Размер потока : 575 Мбайт (4%)
Заголовок : Dub
Язык : Russian
ServiceKind/ : Complete Main
Default : Да
Forced : Нет

Аудио #2
Идентификатор : 3
Формат : AC-3
Формат/Информация : Audio Coding 3
Коммерческое название : Dolby Digital
Идентификатор кодека : A_AC3
Продолжительность : 2 ч. 5 м.
Вид битрейта : Постоянный
Битрейт : 640 Кбит/сек
Каналы : 6 каналов
Channel layout : L R C LFE Ls Rs
Частота : 48,0 КГц
Частота кадров : 31,250 кадров/сек (1536 SPF)
Битовая глубина : 16 бит
Метод сжатия : С потерями
Размер потока : 575 Мбайт (4%)
Язык : English
ServiceKind/ : Complete Main
Default : Нет
Forced : Нет

Текст #1
Идентификатор : 4
Формат : UTF-8
Идентификатор кодека : S_TEXT/UTF8
Идентификатор кодека/Информация : UTF-8 Plain Text
Продолжительность : 2 ч. 4 м.
Битрейт : 54 бит/сек
ElementCount : 745
Размер потока : 50,2 Кбайт (0%)
Язык : Russian
Default : Нет
Forced : Нет

Текст #2
Идентификатор : 5
Формат : UTF-8
Идентификатор кодека : S_TEXT/UTF8
Идентификатор кодека/Информация : UTF-8 Plain Text
Продолжительность : 2 ч. 4 м.
Битрейт : 33 бит/сек
ElementCount : 899
Размер потока : 30,2 Кбайт (0%)
Язык : English
Default : Нет
Forced : Нет

Текст #3
Идентификатор : 6
Формат : UTF-8
Идентификатор кодека : S_TEXT/UTF8
Идентификатор кодека/Информация : UTF-8 Plain Text
Продолжительность : 2 ч. 4 м.
Битрейт : 33 бит/сек
ElementCount : 791
Размер потока : 30,9 Кбайт (0%)
Язык : English
Default : Нет
Forced : Нет

Меню
00:00:00.000 : :Chapter 01
00:00:49.507 : :Chapter 02
00:05:59.609 : :Chapter 03
00:08:05.985 : :Chapter 04
00:12:37.047 : :Chapter 05
00:15:15.164 : :Chapter 06
00:18:01.288 : :Chapter 07
00:20:35.234 : :Chapter 08
00:23:16.770 : :Chapter 09
00:27:28.813 : :Chapter 10
00:32:58.434 : :Chapter 11
00:40:01.023 : :Chapter 12
00:46:12.436 : :Chapter 13
00:48:31.742 : :Chapter 14
00:51:06.313 : :Chapter 15
00:53:24.034 : :Chapter 16
00:57:37.120 : :Chapter 17
01:01:14.712 : :Chapter 18
01:06:03.626 : :Chapter 19
01:10:39.902 : :Chapter 20
01:17:02.451 : :Chapter 21
01:22:40.705 : :Chapter 22
01:25:27.914 : :Chapter 23
01:31:05.960 : :Chapter 24
01:34:50.267 : :Chapter 25
01:36:16.187 : :Chapter 26
01:40:37.573 : :Chapter 27
01:48:56.154 : :Chapter 28
01:54:11.845 : :Chapter 29
01:57:53.524 : :Chapter 30
01:59:45.553 : :Chapter 31
02:03:56.679 : :Chapter 32



Автор: OldGamer
КУБКИ

СТАЖ

МЕДАЛИ
Награды:22

Лучший по количеству кубков (1) За отличные раздачи и качество (10) Почётный форумчанин (3) Верный Сид (4)

Аватара пользователя
OldGamer
Опытный Релизёр-Корсар
  • Торрент
Для скачивания торрента необходимо зарегистрироваться или войти на трекер.

Непрочитанное сообщение mafo2 » 17 авг 2019, 09:13

Спасибо!
СТАЖ

МЕДАЛИ
Награды:1

За помощь проекту (1)

Аватара пользователя
mafo2
Опытный Корсар


Вернуться в Фильмы HEVC (HEVC Video)



Uptime по данным Ping-Admin.Ru - сервиса мониторинга доступности сайтов
Рейтинг@Mail.ru