logo
Международный русскоязычный
торрент-трекер
Menu

Doublon
Поделиться с друзьями: 
Голосуй за Корсар и получи 400 дублонов
Рейтинг торрент трекеров - UpTracker.ru

Шантажист (1987, молодежный, драма, SATRip-AVC)

Сообщение Korsar » 28 янв 2017, 09:45

Шантажист

Жанр: драма
Год выпуска: 1987
Продолжительность: 01:26:27
Режиссёр: Валерий Курыкин
В ролях:
Михаил Ефремов, Андрей Тихомирнов, Александр Ширвиндт, Марина Старых, Нина Гомиашвили, Леонид Куравлёв, Валентина Титова, Валерий Афанасьев, Николай Карнаухов, Сергей Гармаш, Георгий Крамеров

Описание:
Герои фильма, московские девятиклассники, дружат с детства. Когда Генка разбивает машину отца Ани, Миша отдает заработанные на фотографиях деньги друзьям. Но этого мало. И тогда Генка крадет в школьной фотостудии видеокамеру, чтобы её продать...
| Сэмпл | Кинопоиск
Качество видео: SATRip-AVC, thx CLIPMAN
Формат видео: MKV

Видео: x264; 718@765x458, Display aspect ratio 1.670:1, 25.000 fps, 2211 Kbps
Аудио: AC-3; 16 bit 48 Khz; Mono 192 Kbps; CBR
Доп. инфо: Присутствуют всплывающие анонсы текущего показа.
avs [info]: 718x458p 16:15 @ 25/1 fps (cfr)
x264 [info]: using SAR=16/15
x264 [info]: profile Main, level 4.1
x264 [info]: frame I:680 Avg QP:17.38 size: 46185
x264 [info]: frame P:28898 Avg QP:19.20 size: 22220
x264 [info]: frame B:100103 Avg QP:20.05 size: 7592
x264 [info]: consecutive B-frames: 1.8% 4.1% 7.5% 20.1% 19.5% 37.8% 6.0% 1.7% 1.0% 0.5% 0.1%
x264 [info]: ref P L0: 38.8% 13.7% 16.2% 5.9% 5.5% 3.5% 3.7% 1.9% 2.1% 1.5% 1.7% 1.2% 1.4% 1.0% 1.2% 0.7%
x264 [info]: ref B L0: 73.6% 9.3% 4.6% 2.7% 1.9% 1.8% 1.4% 1.0% 0.8% 0.8% 0.6% 0.6% 0.5% 0.4% 0.1%
x264 [info]: ref B L1: 96.2% 3.8%
x264 [info]: kb/s:2210.75

General
Unique ID : 174135620029339252208088687195819682468 (0x83014CED8FA21E1E965BCD5384B52AA4)
Complete name : Шантажист.1987.mkv
Format : Matroska
Format version : Version 2
File size : 1.45 GiB
Duration : 1h 26mn
Overall bit rate : 2 404 Kbps
Movie name : «Шантажист»
Encoded date : UTC 2016-08-27 13:41:25
Writing application : mkvmerge v5.8.0 ('No Sleep / Pillow') built on Sep 2 2012 15:37:04
Writing library : libebml v1.2.3 + libmatroska v1.3.0
Comment : SATRip-AVC
Originally released : August 24th 2016
Encoded by : george$t®

Video
ID : 1
Format : AVC
Format/Info : Advanced Video Codec
Format profile : High@L4.1
Format settings, CABAC : Yes
Format settings, ReFrames : 16 frames
Codec ID : V_MPEG4/ISO/AVC
Duration : 1h 26mn
Bit rate : 2 211 Kbps
Width : 718 pixels
Height : 458 pixels
Display aspect ratio : 1.670
Original display aspect rat : 1.672
Frame rate mode : Constant
Frame rate : 25.000 fps
Color space : YUV
Chroma subsampling : 4:2:0
Bit depth : 8 bits
Scan type : Progressive
Bits/(Pixel*Frame) : 0.269
Stream size : 1.31 GiB (90%)
Title : Шантажист.1987
Writing library : x264 core 148 r2692kMod 64f4e24
Encoding settings : cabac=1 / ref=16 / deblock=1:-3:-1 / analyse=0x3:0x133 / me=umh / subme=11 / psy=1 / fade_compensate=0.00 / psy_rd=1.02:0.15 / mixed_ref=1 / me_range=32 / chroma_me=1 / trellis=2 / 8x8dct=1 / cqm=0 / deadzone=21,11 / fast_pskip=0 / chroma_qp_offset=-3 / threads=12 / lookahead_threads=3 / sliced_threads=0 / nr=0 / decimate=0 / interlaced=0 / bluray_compat=0 / constrained_intra=0 / fgo=0 / bframes=10 / b_pyramid=2 / b_adapt=2 / b_bias=0 / direct=3 / weightb=1 / open_gop=0 / weightp=2 / keyint=250 / keyint_min=25 / scenecut=40 / intra_refresh=0 / rc_lookahead=60 / rc=2pass / mbtree=0 / bitrate=2211 / ratetol=1.0 / qcomp=0.60 / qpmin=0 / qpmax=69 / qpstep=4 / cplxblur=20.0 / qblur=0.5 / vbv_maxrate=50000 / vbv_bufsize=62500 / nal_hrd=none / filler=0 / ip_ratio=1.20 / pb_ratio=1.30 / aq=3:0.90
Language : Russian
Default : Yes
Forced : No
Color primaries : BT.601 PAL
Transfer characteristics : BT.470 System B, BT.470 System G
Matrix coefficients : BT.601
Color range : Limited

Audio
ID : 2
Format : AC-3
Format/Info : Audio Coding 3
Mode extension : CM (complete main)
Format settings, Endianness : Big
Codec ID : A_AC3
Duration : 1h 26mn
Bit rate mode : Constant
Bit rate : 192 Kbps
Channel(s) : 1 channel
Channel positions : Front: C
Sampling rate : 48.0 KHz
Bit depth : 16 bits
Compression mode : Lossy
Stream size : 119 MiB (8%)
Title : AC-3; 16 bit 48 Khz; Mono 192 Kbps; CBR
Language : Russian
Default : Yes
Forced : No

Автор рипа: george$t

Боцман
Аватара пользователя
Korsar
Заслуженный Корсар-Вип+
 
 

Награды: 32
За помощь проекту (2) Лучший по количеству кубков (2) За отличные раздачи и качество (13) За подробное оформление раздач (1) За отличные комментарии (1) Верный Сид (11) За участие в конкурсах/играх (2)
  • Торрент
Для скачивания торрента необходимо зарегистрироваться или войти на трекер.

Вернуться в Кино времён СССР



Uptime по данным Ping-Admin.Ru - сервиса мониторинга доступности сайтов
Рейтинг@Mail.ru Голосуйте за наш сайт в каталоге Rubo.Ru
cron