logo
Международный русскоязычный
торрент-трекер
Menu
Doublon
Поделиться с друзьями: 
Голосуй за Корсар и получи 400 дублонов
Рейтинг торрент трекеров - UpTracker.ru

Шанс (1984, Комедия, фантастика, DVDRip-AVC) - KORSAR

Сообщение filbi1976 » 15 сен 2017, 17:00

Название: Шанс
Год выпуска: 1984
Жанр: Комедия, фантастика
Режиссер: Александр Майоров
В ролях: Валентин Голубенко, Сергей Жигунов, Вероника Изотова, Раиса Куркина, Майя Менглет, Виктор Павлов, Сергей Плотников, Михаил Светин, Мария Капнист-Серко, Игорь Ясулович, Борис Иванов, Людмила Иванова, Елена Тонунц, Игорь Шкурин, Дилором Камбарова, Елена Максимова, Вера Новикова, Вадим Александров, Андрей Николаев, Владимир Чуприков, Александр Панкратов-Черный

Описание: Когда-то Битый спас от медведя инопланетян, за что получил от них в знак благодарности волшебный эликсир молодости. Солидные люди, хлебнув эликсир, помолодели на несколько десятилетий. Некоторых это привело в восторг - появилось желание любить, творить, жить. Однако происшедшее устроило далеко не всех. Кое-кому нежданная молодость доставила много житейских осложнений.



Страна: СССР
Продолжительность: 01:20:12
Перевод: Не требуется

Кодек: х264
Качество: DVDRip-AVC
Видео: MPEG-4 AVC, 692x304@738x304, 25 fps, 1678 Кбит/с
Звук: AC3, 2 ch, 384 Кбит/с

На съёмках фильма Сергей Жигунов познакомился со своей будущей женой Верой Новиковой (роль Шурочки).
Сначала, в альманахе «Мир приключений» 1971 года, была опубликована первая версия повести «Марсианское зелье». Финал повести принципиально отличался от кинематографического. Затем Кир Булычёв совместно с режиссёром написал сценарий фильма, по которому фильм и был снят. Потом он переписал повесть, приблизив её к сценарному варианту, сделав более динамичной.
Часть эффекта узнавания зрителем помолодевших персонажей основана на том, что озвучены «старики» и «молодые» одними и теми же голосами.
  • x264 [info]: frame I:678 Avg QP:18.17 size: 37225
  • x264 [info]: frame P:25621 Avg QP:19.75 size: 19274
  • x264 [info]: frame B:94004 Avg QP:21.78 size: 5471
Общее
Уникальный идентификатор : 207121682830322975446217892065913295205 (0x9BD22F6355B87941ACCA3D5BA9BB5165)
Полное имя : D:\Шанс_1984-DVDRip-AVC.mkv
Формат : Matroska
Версия формата : Version 2
Размер файла : 1,18 Гбайт
Продолжительность : 1 ч. 20 м.
Общий поток : 2104 Кбит/сек
Название фильма : Шанс_1984-DVDRip-AVC_KORSAR
Дата кодирования : UTC 2017-09-15 15:01:12
Программа кодирования : mkvmerge v5.8.0 ('No Sleep / Pillow') built on Sep 2 2012 15:37:04
Библиотека кодирования : libebml v1.2.3 + libmatroska v1.3.0

Видео
Идентификатор : 1
Формат : AVC
Формат/Информация : Advanced Video Codec
Профиль формата : High@L4.1
Параметр CABAC формата : Да
Параметр RefFrames формата : 15 кадров
Идентификатор кодека : V_MPEG4/ISO/AVC
Продолжительность : 1 ч. 20 м.
Битрейт : 1678 Кбит/сек
Ширина : 692 пикселя
Высота : 304 пикселя
Соотношение сторон : 2,40:1
Режим частоты кадров : Постоянный
Частота кадров : 25,000 кадров/сек
Цветовое пространство : YUV
Субдискретизация насыщенности : 4:2:0
Битовая глубина : 8 бит
Тип развёртки : Прогрессивная
Бит/(Пиксели*Кадры) : 0.319
Размер потока : 962 Мбайт (80%)
Библиотека кодирования : x264 core 148 r2744kMod b97ae06
Настройки программы : cabac=1 / ref=15 / deblock=1:-1:-1 / analyse=0x3:0x133 / me=umh / subme=10 / psy=1 / fade_compensate=0.00 / psy_rd=1.05:0.05 / mixed_ref=1 / me_range=32 / chroma_me=1 / trellis=2 / 8x8dct=1 / cqm=0 / deadzone=21,11 / fast_pskip=1 / chroma_qp_offset=-3 / threads=9 / lookahead_threads=1 / sliced_threads=0 / nr=0 / decimate=1 / interlaced=0 / bluray_compat=0 / constrained_intra=0 / bframes=9 / b_pyramid=2 / b_adapt=2 / b_bias=0 / direct=1 / weightb=1 / open_gop=0 / weightp=2 / keyint=250 / keyint_min=25 / scenecut=40 / intra_refresh=0 / rc=crf / mbtree=0 / crf=17.8000 / qcomp=0.63 / qpmin=0 / qpmax=39 / qpstep=4 / ip_ratio=1.40 / pb_ratio=1.30 / aq=1:0.90
Язык : English
Default : Да
Forced : Нет
Цветовой диапазон : Limited
Основные цвета : BT.601 PAL
Характеристики трансфера : BT.470 System B, BT.470 System G
Коэффициенты матрицы : BT.601

Аудио
Идентификатор : 2
Формат : AC-3
Формат/Информация : Audio Coding 3
Параметр Endianness формата : Big
Идентификатор кодека : A_AC3
Продолжительность : 1 ч. 20 м.
Вид битрейта : Постоянный
Битрейт : 384 Кбит/сек
Каналы : 2 канала
Расположение каналов : Front: L R
Частота : 48,0 КГц
Частота кадров : 31,250 кадров/сек (1536 SPF)
Битовая глубина : 16 бит
Метод сжатия : С потерями
Размер потока : 220 Мбайт (18%)
Язык : Russian
ServiceKind/String : Complete Main
Default : Да
Forced : Нет

Меню
00:00:00.000 : en:Chapter 1
00:08:58.080 : en:Chapter 2
00:18:55.080 : en:Chapter 3
00:28:20.040 : en:Chapter 4
00:36:31.080 : en:Chapter 5
00:47:02.280 : en:Chapter 6
00:53:59.160 : en:Chapter 7
01:04:42.120 : en:Chapter 8
01:12:39.720 : en:Chapter 9


За изготовление постера спасибо kisa1980
КУБКИ

СТАЖ

МЕДАЛИ
Награды:69

За помощь проекту (1) За отличные раздачи и качество (50) За отличные комментарии (1) Верный Сид (14) За участие в конкурсах/играх (1)

Аватара пользователя
Тортуга
filbi1976
Администратор-Корсар
Раздачи группы KORSAR разрешено перезаливать спустя сутки после публикации
  • Торрент
Для скачивания торрента необходимо зарегистрироваться или войти на трекер.

Сообщение verybigpapa » 15 сен 2017, 17:54

Уважаемый filbi1976, большое спасибо. :hi: :respect:
Улыбайтесь, господа! Улыбайтесь!
КУБКИ

СТАЖ

МЕДАЛИ
Награды:40

За помощь проекту (15) Лучший по количеству кубков (9) За отличные комментарии (5) Верный Сид (11)

Аватара пользователя
СССР
verybigpapa
Заслуженный Корсар-Вип

Сообщение kwazar312 » 15 сен 2017, 18:12

Уважаемый filbi1976,большое спасибо за выполненный заказ.
Удачи ВАМ.
КУБКИ

СТАЖ

МЕДАЛИ
Награды:70

За помощь проекту (7) Лучший по количеству кубков (19) За отличные комментарии (11) Верный Сид (27) За участие в конкурсах/играх (6)

Аватара пользователя
kwazar312
Заслуженный Корсар-Вип

Сообщение Bars_St » 15 сен 2017, 21:06

Спасибо! Хорошая, добрая комедия... :hi:
КУБКИ

СТАЖ

МЕДАЛИ
Награды:36

За помощь проекту (11) Лучший по количеству кубков (7) За отличные комментарии (7) Верный Сид (11)

Аватара пользователя
СССР
Bars_St
Заслуженный Корсар-Вип

Сообщение Bulfrogg » 15 сен 2017, 21:10

Спасибо Сергей)) :good:
Прозевал я такой фильм)) Качать будем )))
КУБКИ

СТАЖ

МЕДАЛИ
Награды:30

За помощь проекту (15) Лучший по количеству кубков (2) За отличные комментарии (1) Верный Сид (12)

Аватара пользователя
Bulfrogg
Заслуженный Корсар-Вип

Сообщение Бользен » 16 сен 2017, 06:44

Благодарю.
КУБКИ

СТАЖ

МЕДАЛИ
Награды:5

Лучший по количеству кубков (1) За отличные комментарии (1) Верный Сид (3)

Аватара пользователя
СССР
Бользен
Уважаемый Корсар

Сообщение bst78 » 16 сен 2017, 08:15

БОЛЬШОЕ СПАСИБО :hi:
КУБКИ

СТАЖ

МЕДАЛИ
Награды:11

За помощь проекту (8) За отличные комментарии (1) Верный Сид (2)

Аватара пользователя
СССР
bst78
Заслуженный Корсар-Вип

Сообщение kwazar312 » 06 дек 2018, 20:19

«Шанс» — художественный фильм, фантастическая комедия. Экранизация повести Кира Булычёва «Марсианское зелье» из цикла «Великий Гусляр».
1.На съёмках фильма Сергей Жигунов познакомился со своей будущей женой Верой Новиковой (роль Шурочки).
2.Сначала, в альманахе «Мир приключений» 1971 года, была опубликована первая версия повести «Марсианское зелье». Финал повести принципиально отличался от кинематографического. Затем Кир Булычёв совместно с режиссёром написал сценарий фильма, по которому фильм и был снят. В более поздних изданиях печатался вариант текста повести, приближённый к сценарному варианту.
3.Часть эффекта узнавания зрителем помолодевших персонажей основана на том, что озвучены «старики» и «молодые» одними и теми же голосами.
4.Съёмки фильма проходили в городе Калуга.
5.Автомобиль, задействованный в съёмках — Dux K24 модели 1909 года.
Фильм на раздаче,скачивайте,пожалуйста.Удачи.
КУБКИ

СТАЖ

МЕДАЛИ
Награды:70

За помощь проекту (7) Лучший по количеству кубков (19) За отличные комментарии (11) Верный Сид (27) За участие в конкурсах/играх (6)

Аватара пользователя
kwazar312
Заслуженный Корсар-Вип

Сообщение dzalaev » 06 дек 2018, 20:36

kwazar312 писал(а):Фильм на раздаче,скачивайте,пожалуйста.Удачи.

Спасибо. :hi:
КУБКИ

СТАЖ

МЕДАЛИ
Награды:8

За помощь проекту (2) За отличные комментарии (4) Верный Сид (2)

Аватара пользователя
СССР
dzalaev
Опытный Корсар


Вернуться в Кино времён СССР



Uptime по данным Ping-Admin.Ru - сервиса мониторинга доступности сайтов
Рейтинг@Mail.ru Голосуйте за наш сайт в каталоге Rubo.Ru