logo
Международный русскоязычный
торрент-трекер
Menu

Doublon
Поделиться с друзьями: 
Голосуй за Корсар и получи 150 дублонов
Рейтинг торрент трекеров - UpTracker.ru

Серпико / Serpico (1973, триллер, драма, криминал, биография, BDRip 720p)

Сообщение _denis_100 » 15 апр 2018, 19:35

Русское название: Серпико
Оригинальное название: Serpico
Год выпуска: 1973
Жанр: триллер, драма, криминал, биография
Выпущено: Италия, США
Режиссер: Сидни Люмет
В ролях: Аль Пачино , Джон Рэндольф , Джек Кихоу , Бифф МакГуайр , Барбара Эда-Янг , Корнелия Шарп , Тони Робертс , Джон Медичи , Аллан Рич , Норман Орнеллас , Эдвард Гроувер , Аль Хендерсон
Перевод: Профессиональный многоголосый, Профессиональный двухголосый, Авторский одноголосый

Сюжет фильма: В основу сюжета положена реальная история нью-йоркского полицейского, который обнаруживает, что в его работе понятия честь и честность не являются обязательными. Он стойко переносит презрение и плохое отношение к себе со стороны других полицейских, стараясь честно выполнять свою работу.



Качество: BDRip 720p
Формат: AVC (библиотека кодирования x.264)
Контейнер (Расширение): MKV
Видео: 1280x696, 8511 Кбит/сек, 23,976 кадр/сек, 0,398 Бит/[Пиксели*Кадры]
Аудио №1: русский / AC3 / 5.1 / 48 kHz / 448 kbps / |Профессиональный многоголосый, R5|
Аудио №2: русский / AC3 / 5.1 / 48 kHz / 448 kbps / |Профессиональный многоголосый|
Аудио №3: русский / AC3 / 2.0 / 48 kHz / 192 kbps / |Профессиональный двухголосый, НТВ+|
Аудио №4: русский / DTS / 2.0 / 48 kHz / 1509 kbps / 16 bit |Авторский одноголосый, Ю.Сербин|
Аудио №5: русский / DTS / 2.0 / 48 kHz / 1509 kbps / 16 bit |Авторский одноголосый, Д.Есарев|
Аудио №6: английский / DTS / 2.0 / 48 kHz / 1509 kbps / 16 bit
Субтитры: русские, английские
Навигация по главам(Чаптеры): есть
Продолжительность: 02:10:07

Автор рипа: Группа:


Format : Matroska
Format version : Version 2
File size : 12.8 GiB
Duration : 2 h 10 min
Overall bit rate : 14.1 Mb/s
Movie name : Serpico.(1973).BDRip.720p.[denis100]
Encoded date : UTC 2018-04-15 16:06:25
Writing application : mkvmerge v5.8.0 ('No Sleep / Pillow') built on Sep 2 2012 15:37:04
Writing library : libebml v1.2.3 + libmatroska v1.3.0

Video
ID : 1
Format : AVC
Format/Info : Advanced Video Codec
Format profile : High@L4.1
Format settings, CABAC : Yes
Format settings, ReFrames : 9 frames
Codec ID : V_MPEG4/ISO/AVC
Duration : 2 h 10 min
Bit rate : 8 511 kb/s
Width : 1 280 pixels
Height : 696 pixels
Display aspect ratio : 1.85:1
Frame rate mode : Constant
Frame rate : 23.976 (24000/1001) FPS
Color space : YUV
Chroma subsampling : 4:2:0
Bit depth : 8 bits
Scan type : Progressive
Bits/(Pixel*Frame) : 0.398
Stream size : 7.48 GiB (58%)
Title : Serpico.(1973).BDRip.720p.[denis100]
Writing library : x264 core 152 r2851 ba24899
Encoding settings : cabac=1 / ref=9 / deblock=1:-3:-3 / analyse=0x3:0x133 / me=umh / subme=11 / psy=1 / psy_rd=1.00:0.10 / mixed_ref=1 / me_range=32 / chroma_me=1 / trellis=2 / 8x8dct=1 / cqm=0 / deadzone=21,11 / fast_pskip=0 / chroma_qp_offset=-3 / threads=6 / lookahead_threads=1 / sliced_threads=0 / nr=0 / decimate=1 / interlaced=0 / bluray_compat=0 / constrained_intra=0 / bframes=8 / b_pyramid=2 / b_adapt=2 / b_bias=0 / direct=3 / weightb=1 / open_gop=0 / weightp=2 / keyint=240 / keyint_min=23 / scenecut=40 / intra_refresh=0 / rc=2pass / mbtree=0 / bitrate=8511 / ratetol=1.0 / qcomp=0.60 / qpmin=0 / qpmax=69 / qpstep=4 / cplxblur=20.0 / qblur=0.5 / ip_ratio=1.40 / pb_ratio=1.30 / aq=1:0.75
Language : English
Default : Yes
Forced : No

Audio #1
ID : 2
Format : AC-3
Format/Info : Audio Coding 3
Mode extension : CM (complete main)
Format settings, Endianness : Big
Codec ID : A_AC3
Duration : 2 h 10 min
Bit rate mode : Constant
Bit rate : 448 kb/s
Channel(s) : 6 channels
Channel positions : Front: L C R, Side: L R, LFE
Sampling rate : 48.0 kHz
Frame rate : 31.250 FPS (1536 spf)
Compression mode : Lossy
Stream size : 417 MiB (3%)
Title : MVO, R5
Language : Russian
Default : Yes
Forced : No

Audio #2
ID : 3
Format : AC-3
Format/Info : Audio Coding 3
Mode extension : CM (complete main)
Format settings, Endianness : Big
Codec ID : A_AC3
Duration : 2 h 10 min
Bit rate mode : Constant
Bit rate : 448 kb/s
Channel(s) : 6 channels
Channel positions : Front: L C R, Side: L R, LFE
Sampling rate : 48.0 kHz
Frame rate : 31.250 FPS (1536 spf)
Compression mode : Lossy
Stream size : 417 MiB (3%)
Title : MVO
Language : Russian
Default : No
Forced : No

Audio #3
ID : 4
Format : AC-3
Format/Info : Audio Coding 3
Mode extension : CM (complete main)
Format settings, Endianness : Big
Codec ID : A_AC3
Duration : 2 h 10 min
Bit rate mode : Constant
Bit rate : 192 kb/s
Channel(s) : 2 channels
Channel positions : Front: L R
Sampling rate : 48.0 kHz
Frame rate : 31.250 FPS (1536 spf)
Compression mode : Lossy
Stream size : 179 MiB (1%)
Title : DVO, НТВ+
Language : Russian
Default : No
Forced : No

Audio #4
ID : 5
Format : DTS
Format/Info : Digital Theater Systems
Mode : 16
Format settings, Endianness : Big
Codec ID : A_DTS
Duration : 2 h 10 min
Bit rate mode : Constant
Bit rate : 1 509 kb/s
Channel(s) : 2 channels
Channel positions : Front: L R
Sampling rate : 48.0 kHz
Frame rate : 93.750 FPS (512 spf)
Bit depth : 16 bits
Compression mode : Lossy
Stream size : 1.37 GiB (11%)
Title : AVO, Ю.Сербин
Language : Russian
Default : No
Forced : No

Audio #5
ID : 6
Format : DTS
Format/Info : Digital Theater Systems
Mode : 16
Format settings, Endianness : Big
Codec ID : A_DTS
Duration : 2 h 10 min
Bit rate mode : Constant
Bit rate : 1 509 kb/s
Channel(s) : 2 channels
Channel positions : Front: L R
Sampling rate : 48.0 kHz
Frame rate : 93.750 FPS (512 spf)
Bit depth : 16 bits
Compression mode : Lossy
Stream size : 1.37 GiB (11%)
Title : AVO, Д.Есарев
Language : Russian
Default : No
Forced : No

Audio #6
ID : 7
Format : DTS
Format/Info : Digital Theater Systems
Mode : 16
Format settings, Endianness : Big
Codec ID : A_DTS
Duration : 2 h 10 min
Bit rate mode : Constant
Bit rate : 1 509 kb/s
Channel(s) : 2 channels
Channel positions : Front: L R
Sampling rate : 48.0 kHz
Frame rate : 93.750 FPS (512 spf)
Bit depth : 16 bits
Compression mode : Lossy
Stream size : 1.37 GiB (11%)
Language : English
Default : No
Forced : No

Text #1
ID : 8
Format : UTF-8
Codec ID : S_TEXT/UTF8
Codec ID/Info : UTF-8 Plain Text
Language : Russian
Default : No
Forced : No

Text #2
ID : 9
Format : UTF-8
Codec ID : S_TEXT/UTF8
Codec ID/Info : UTF-8 Plain Text
Language : English
Default : No
Forced : No

Menu
00:00:00.000 : en:Chapter 01
00:09:34.949 : en:Chapter 02
00:20:46.370 : en:Chapter 03
00:32:02.837 : en:Chapter 04
00:43:09.628 : en:Chapter 05
00:55:29.159 : en:Chapter 06
01:05:31.010 : en:Chapter 07
01:16:11.567 : en:Chapter 08
01:24:43.870 : en:Chapter 09
01:35:56.041 : en:Chapter 10
01:47:08.505 : en:Chapter 11
02:00:08.075 : en:Chapter 12


Аватара пользователя
_denis_100
Опытный Релизёр-Корсар
 
 

Награды: 20
Лучший по количеству кубков (1) За отличные раздачи и качество (13) За подробное оформление раздач (1) Верный Сид (1)
  • Торрент
Для скачивания торрента необходимо зарегистрироваться или войти на трекер.

Сообщение filbi1976 » 15 апр 2018, 20:35

Денис, спасибо!
Фильм совершенно не помню, нужно посмотреть. :-drinks:
Аватара пользователя
filbi1976
Администратор-Корсар
 
 

Награды: 56
За помощь проекту (1) За отличные раздачи и качество (41) Верный Сид (11) За участие в конкурсах/играх (1)


Вернуться в Классика зарубежного кино (фильмы до 1980 года / HD Video)



Uptime по данным Ping-Admin.Ru - сервиса мониторинга доступности сайтов
Рейтинг@Mail.ru