logo
Международный русскоязычный
торрент-трекер
Menu

Doublon
Поделиться с друзьями: 
Голосуй за Корсар и получи 150 дублонов
Рейтинг торрент трекеров - UpTracker.ru

Секретные материалы / The X-Files / Сезон: 10 / Серии: 1-6 из 6 (2016, Фантастика, триллер, драма, детектив, WEB-DL 1080p)

Сообщение Korsar » 01 дек 2016, 00:57

Секретные материалы | The X-Files

• Год выпуска: 2016
• Страна: США
• Жанр: фантастика, триллер, драма, детектив
• Продолжительность: ~ 00:43:00
• Перевод: субтитры
• Режиссёр: Крис Картер, Дэрин Морган, Глен Морган
• В ролях: Дэвид Духовны, Джиллиан Андерсон, Митч Пиледжи, Уильям Б. Дэвис, Робби Амелл, Том Брэйдвуд, Дин Хэглунд, Брюс Харвуд, Джоэл МакХэйл, Лорен Эмброуз
• Описание: Специальные агенты ФБР, Фокс Малдер и Дана Скалли, снова работают вместе, чтобы расследовать странные и необъяснимые дела, связанные с паранормальными явлениями.



• Качество: WEB-DL 1080p
• Формат: MKV
• Видео: X264, 1916x1076 (16:9), 23,976 fps, ~5000 kbps
• Аудио #1: AC3, 48 kHz, 6 ch, 384 kbps, СBR - Eng
• Субтитры: русские, английские
• Переводчики: Juliannaonmars, AmandaAngels, ilushke, Blumquist, IgorLis, okpoxa, Frageenov и др (синхронизация c WEB-DL - qqss44)
Код:
Код: Выделить всё
Общее
Уникальный идентификатор                 : 182752781512738133953483744043499195645 (0x897CE7CA7E245C7C8FA99A7B315F0CFD)
Полное имя                               : X:\ATorrent\The.X-Files.S10.WEB-DL1080p\The.X-Files.S10E01.WEB-DL.1080p.[qqss44].mkv
Формат                                   : Matroska
Версия формата                           : Version 2
Размер файла                             : 1,68 Гбайт
Продолжительность                        : 44 м.
Общий поток                              : 5373 Кбит/сек
Название фильма                          : The.X-Files.S10E01.1080p.WEB-DL.DD5.1.H264-RARBG
Дата кодирования                         : UTC 2016-01-25 17:40:08
Программа кодирования                    : mkvmerge v7.9.0 ('Birds') 64bit
Библиотека кодирования                   : libebml v1.3.1 + libmatroska v1.4.2
Attachements                             : cover_land.jpg / small_cover.jpg / small_cover_land.jpg / cover.jpg
DURATION                                 : 00:43:14.898000000
NUMBER_OF_FRAMES                         : 765
NUMBER_OF_BYTES                          : 41836
_STATISTICS_WRITING_APP                  : mkvmerge v7.9.0 ('Birds') 64bit
_STATISTICS_WRITING_DATE_UTC             : 2016-01-25 17:40:08
_STATISTICS_TAGS                         : BPS DURATION NUMBER_OF_FRAMES NUMBER_OF_BYTES

Видео
Идентификатор                            : 1
Формат                                   : AVC
Формат/Информация                        : Advanced Video Codec
Профиль формата                          : High@L4
Параметр CABAC формата                   : Да
Параметр ReFrames формата                : 4 кадра
Идентификатор кодека                     : V_MPEG4/ISO/AVC
Продолжительность                        : 44 м.
Битрейт                                  : 4882 Кбит/сек
Ширина                                   : 1916 пикселей
Высота                                   : 1076 пикселей
Соотношение сторон                       : 16:9
Режим частоты кадров                     : Постоянный
Частота кадров                           : 23,976 кадра/сек
Цветовое пространство                    : YUV
Субдискретизация насыщенности            : 4:2:0
Битовая глубина                          : 8 бит
Тип развёртки                            : Прогрессивная
Бит/(Пиксели*Кадры)                      : 0.099
Размер потока                            : 1,53 Гбайт (91%)
Заголовок                                : The.X-Files.S10E01.1080p.WEB-DL.DD5.1.H264-RARBG
Язык                                     : English
Default                                  : Да
Forced                                   : Нет
Цветовой диапазон                        : Limited
Основные цвета                           : BT.709
Характеристики трансфера                 : BT.709
Коэффициенты матрицы                     : BT.709

Аудио
Идентификатор                            : 2
Формат                                   : AC-3
Формат/Информация                        : Audio Coding 3
Расширение режима                        : CM (complete main)
Параметр Endianness формата              : Big
Идентификатор кодека                     : A_AC3
Продолжительность                        : 44 м.
Вид битрейта                             : Постоянный
Битрейт                                  : 384 Кбит/сек
Каналы                                   : 6 каналов
Расположение каналов                     : Front: L C R, Side: L R, LFE
Частота                                  : 48,0 КГц
Метод сжатия                             : С потерями
Размер потока                            : 123 Мбайт (7%)
Заголовок                                : The.X-Files.S10E01.1080p.WEB-DL.DD5.1.H264-RARBG
Язык                                     : English
Default                                  : Да
Forced                                   : Нет

Текст #1
Идентификатор                            : 3
Формат                                   : UTF-8
Идентификатор кодека                     : S_TEXT/UTF8
Идентификатор кодека/Информация          : UTF-8 Plain Text
Язык                                     : Russian
Default                                  : Да
Forced                                   : Нет

Текст #2
Идентификатор                            : 4
Формат                                   : UTF-8
Идентификатор кодека                     : S_TEXT/UTF8
Идентификатор кодека/Информация          : UTF-8 Plain Text
Язык                                     : English
Default                                  : Нет
Forced                                   : Нет


Боцман
Аватара пользователя
Korsar
Заслуженный Корсар-Вип+
 
 

Награды: 32
За помощь проекту (2) Лучший по количеству кубков (2) За отличные раздачи и качество (13) За подробное оформление раздач (1) За отличные комментарии (1) Верный Сид (11) За участие в конкурсах/играх (2)
  • Торрент
Для скачивания торрента необходимо зарегистрироваться или войти на трекер.

Вернуться в Зарубежные сериалы (HD Video)



Uptime по данным Ping-Admin.Ru - сервиса мониторинга доступности сайтов
Рейтинг@Mail.ru