logo
Международный русскоязычный
торрент-трекер
Menu
Doublon
Поделиться с друзьями: 
Голосуй за Корсар и получи 400 дублонов
Рейтинг торрент трекеров - UpTracker.ru

Schiller - Zeitreise Live (2016, Trance / Ambient / Downtempo, BDRip 720p)

Сообщение Korsar » 12 янв 2017, 03:32

Schiller - Zeitreise Live

Жанр: Trance / Ambient / Downtempo
Продолжительность: 01:55:49
Год выпуска: 2016

01. Zeitreise
02. Schwerelos
03. The Future
04. Ile Aye
05. Nachtflug
06. Rubinrot
07. Playing With Madness
08. Ultramarin
09. Berlin - Moskau
10. Salton Sea
11. Mitternacht
12. Polarstern
13. Looking Out For You
14. Not In Love
15. Paradise
16. Once Upon A Time
17. Ein Sch ner Tag
18. Dancing In The Dark
19. Das Glockenspiel
20. Sehnsucht
21. Schiller
22. Ruhe
23. For You


Качество: BDRip
Разрешение видео/развертка: 720p
Контейнер: MKV
Видео кодек: H.264
Аудио кодек: DTS, FLAC
Видео: AVC, 1280x720 (16:9), 25.000 fps, 4 000 Kbps
Аудио: FLAC, 48.0 KHz, 2 ch, 1 589 Kbps
Аудио:DTS, 48.0 KHz, 6 ch, 1 510 Kbps
Код: Выделить всё
[Information] [09.01.2017 22:16:03] Standard error stream
-[Information] [09.01.2017 22:16:10] avs [info]: 1280x720p 1:1 @ 25/1 fps (cfr)
-[Information] [09.01.2017 22:16:10] x264 [info]: using SAR=1/1
-[Information] [09.01.2017 22:16:10] x264 [info]: using cpu capabilities: MMX2 SSE2Fast SSSE3 SSE4.2 AVX
-[Information] [09.01.2017 22:16:10] x264 [info]: profile High, level 4.1
-[Information] [10.01.2017 7:52:25] x264 [info]: frame I:1143  Avg QP:13.36  size: 94833
-[Information] [10.01.2017 7:52:26] x264 [info]: frame P:47905 Avg QP:16.68  size: 37717
-[Information] [10.01.2017 7:52:26] x264 [info]: frame B:124673 Avg QP:18.27  size: 12507
-[Information] [10.01.2017 7:52:26] x264 [info]: consecutive B-frames:  3.2%  6.1% 12.9% 53.3% 11.8%  9.1%  1.5%  0.9%  1.1%
-[Information] [10.01.2017 7:52:26] x264 [info]: mb I  I16..4: 15.8% 60.9% 23.3%
-[Information] [10.01.2017 7:52:26] x264 [info]: mb P  I16..4:  7.7% 14.2%  2.3%  P16..4: 41.0% 17.9% 11.6%  0.6%  0.3%    skip: 4.3%
-[Information] [10.01.2017 7:52:26] x264 [info]: mb B  I16..4:  1.2%  1.2%  0.1%  B16..8: 41.3% 11.0%  2.6%  direct:11.0%  skip:31.7%  L0:41.6% L1:45.3% BI:13.1%
-[Information] [10.01.2017 7:52:26] x264 [info]: 8x8 transform intra:56.7% inter:62.0%
-[Information] [10.01.2017 7:52:26] x264 [info]: direct mvs  spatial:91.5% temporal:8.5%
-[Information] [10.01.2017 7:52:26] x264 [info]: coded y,uvDC,uvAC intra: 44.0% 81.5% 58.2% inter: 16.7% 39.3% 13.5%
-[Information] [10.01.2017 7:52:26] x264 [info]: i16 v,h,dc,p: 41% 14% 11% 34%
-[Information] [10.01.2017 7:52:26] x264 [info]: i8 v,h,dc,ddl,ddr,vr,hd,vl,hu:  8%  8% 18%  9% 12% 11% 12% 10% 13%
-[Information] [10.01.2017 7:52:26] x264 [info]: i4 v,h,dc,ddl,ddr,vr,hd,vl,hu:  9%  8% 12% 10% 14% 11% 12% 10% 14%
-[Information] [10.01.2017 7:52:26] x264 [info]: i8c dc,h,v,p: 42% 25% 16% 17%
-[Information] [10.01.2017 7:52:26] x264 [info]: Weighted P-Frames: Y:14.1% UV:10.0%
-[Information] [10.01.2017 7:52:26] x264 [info]: ref P L0: 49.8%  7.1% 17.5%  7.2%  5.2%  4.1%  3.5%  2.4%  2.3%  0.7%  0.1%
-[Information] [10.01.2017 7:52:26] x264 [info]: ref B L0: 73.7% 12.2%  5.6%  2.9%  2.2%  1.8%  1.2%  0.5%
-[Information] [10.01.2017 7:52:26] x264 [info]: ref B L1: 92.8%  7.2%
-[Information] [10.01.2017 7:52:26] x264 [info]: kb/s:4000.09
-[Information] [10.01.2017 7:52:26] encoded 173721 frames, 5.02 fps, 4000.09 kb/s
Код: Выделить всё
General
Unique ID                                : 249649240573120382228383475702980726017 (0xBBD0B1DE7FFFE337B7620C9EC7F8CD01)
Complete name                            : O:\Schiller.Zeitreise.Live.2016.BDRip720p.mkv
Format                                   : Matroska
Format version                           : Version 2
File size                                : 5.74 GiB
Duration                                 : 1 h 55 min
Overall bit rate mode                    : Variable
Overall bit rate                         : 7 101 kb/s
Movie name                               : Schiller.Zeitreise.Live.2016.BDRip720p @ rutracker.org
Encoded date                             : UTC 2017-01-10 08:37:23
Writing application                      : mkvmerge v9.6.0 ('Slave To Your Mind') 64bit
Writing library                          : libebml v1.3.4 + libmatroska v1.4.5

Video
ID                                       : 1
Format                                   : AVC
Format/Info                              : Advanced Video Codec
Format profile                           : High@L4.1
Format settings, CABAC                   : Yes
Format settings, ReFrames                : 9 frames
Codec ID                                 : V_MPEG4/ISO/AVC
Duration                                 : 1 h 55 min
Bit rate                                 : 4 000 kb/s
Width                                    : 1 280 pixels
Height                                   : 720 pixels
Display aspect ratio                     : 16:9
Frame rate mode                          : Constant
Frame rate                               : 25.000 FPS
Color space                              : YUV
Chroma subsampling                       : 4:2:0
Bit depth                                : 8 bits
Scan type                                : Progressive
Bits/(Pixel*Frame)                       : 0.174
Stream size                              : 3.24 GiB (56%)
Title                                    : anbelk27 @ rutracker.org
Writing library                          : x264 core 146 r2538 121396c
Encoding settings                        : cabac=1 / ref=9 / deblock=1:-1:-1 / analyse=0x3:0x133 / me=umh / subme=10 / psy=1 / psy_rd=1.00:0.10 / mixed_ref=1 / me_range=32 / chroma_me=1 / trellis=2 / 8x8dct=1 / cqm=0 / deadzone=21,11 / fast_pskip=1 / chroma_qp_offset=-3 / threads=6 / lookahead_threads=1 / sliced_threads=0 / nr=0 / decimate=1 / interlaced=0 / bluray_compat=0 / constrained_intra=0 / bframes=8 / b_pyramid=2 / b_adapt=2 / b_bias=0 / direct=3 / weightb=0 / open_gop=0 / weightp=2 / keyint=250 / keyint_min=25 / scenecut=40 / intra_refresh=0 / rc_lookahead=120 / rc=2pass / mbtree=1 / bitrate=4000 / ratetol=1.0 / qcomp=0.60 / qpmin=0 / qpmax=69 / qpstep=4 / cplxblur=20.0 / qblur=0.5 / vbv_maxrate=50000 / vbv_bufsize=62500 / nal_hrd=none / filler=0 / ip_ratio=1.40 / aq=1:1.00
Default                                  : Yes
Forced                                   : No

Audio #1
ID                                       : 2
Format                                   : FLAC
Format/Info                              : Free Lossless Audio Codec
Codec ID                                 : A_FLAC
Duration                                 : 1 h 55 min
Bit rate mode                            : Variable
Bit rate                                 : 1 589 kb/s
Channel(s)                               : 2 channels
Channel positions                        : Front: L R
Sampling rate                            : 48.0 kHz
Frame rate                               : 11.719 FPS (4096 spf)
Bit depth                                : 24 bits
Stream size                              : 1.29 GiB (22%)
Title                                    : FLAC @ 2.0
Writing library                          : libFLAC 1.2.1 (UTC 2007-09-17)
Default                                  : Yes
Forced                                   : No

Audio #2
ID                                       : 3
Format                                   : DTS
Format/Info                              : Digital Theater Systems
Mode                                     : 16
Format settings, Endianness              : Big
Codec ID                                 : A_DTS
Duration                                 : 1 h 55 min
Bit rate mode                            : Constant
Bit rate                                 : 1 509 kb/s
Channel(s)                               : 6 channels
Channel positions                        : Front: L C R, Side: L R, LFE
Sampling rate                            : 48.0 kHz
Frame rate                               : 93.750 FPS (512 spf)
Bit depth                                : 24 bits
Compression mode                         : Lossy
Stream size                              : 1.22 GiB (21%)
Title                                    : DTS @ 5.1
Default                                  : No
Forced                                   : No

Menu
00:00:00.000                             : en: 01. Zeitreise
00:02:14.400                             : en: 02. Schwerelos
00:07:49.680                             : en: 03. The Future
00:12:09.640                             : en: 04. Ile Aye
00:16:02.200                             : en: 05. Nachtflug
00:22:14.720                             : en: 06. Rubinrot
00:27:28.880                             : en: 07. Playing With Madness
00:31:53.400                             : en: 08. Ultramarin
00:37:06.040                             : en: 09. Berlin - Moskau
00:42:35.000                             : en: 10. Salton Sea
00:46:03.720                             : en: 11. Mitternacht
00:51:57.040                             : en: 12. Polarstern
00:56:55.360                             : en: 13. Looking Out For You
01:05:47.200                             : en: 14. Not In Love
01:09:58.360                             : en: 15. Paradise
01:14:27.360                             : en: 16. Once Upon A Time
01:18:56.880                             : en: 17. Ein Sch ner Tag
01:23:50.680                             : en: 18. Dancing In The Dark
01:29:07.320                             : en: 19. Das Glockenspiel
01:33:08.640                             : en: 20. Sehnsucht
01:37:50.160                             : en: 21. Schiller
01:43:27.080                             : en: 22. Ruhe
01:47:43.360                             : en: 23. For You
01:54:27.560                             : en:  Credits





#777
КУБКИ

СТАЖ

МЕДАЛИ
Награды:36

За помощь проекту (2) Лучший по количеству кубков (2) За отличные раздачи и качество (13) За подробное оформление раздач (1) За отличные комментарии (1) Верный Сид (13) За участие в конкурсах/играх (2)

Аватара пользователя
СССР
Korsar
Главный Модератор-Корсар
  • Торрент
Для скачивания торрента необходимо зарегистрироваться или войти на трекер.

Вернуться в Концерты (HD Video)



Uptime по данным Ping-Admin.Ru - сервиса мониторинга доступности сайтов
Рейтинг@Mail.ru Голосуйте за наш сайт в каталоге Rubo.Ru