logo
Международный русскоязычный
торрент-трекер
Menu
"Бунт на корабле", за скачанные торрент-файлы дублоны не снимаются. Возможность оплачена пользователем Жорин Сергей.
Doublon
Поделиться с друзьями: 
Голосуй за Корсар и получи 500 дублонов
Рейтинг торрент трекеров - UpTracker.ru

С Богами. Два мира / Singwa hamkke: joewa beol (2017, фэнтези, приключения, драма, детектив, BDRip 1080p)

Сообщение msltel » 14 фев 2020, 11:31

Название: С Богами. Два мира
Оригинальное название: Singwa hamkke: joewa beol
Год выпуска: 2017
Страна: Корея Южная
Жанр: фэнтези, приключения, драма, детектив
Продолжительность: 02:19:32
Перевод: авторский, любительский двухголосый
Режиссер: Ён Хва Ким
В ролях: Чон У Ха, Тхэ Хён Чха, Джи Хун Чжу, Хян Ги Ким, Дон Ук Ким, Кён Су До, Чжун Хёк Ли (I), Су Чжон Е, Ю Бин Сон, Чжон Чжэ Ли, Даль Су О, Вон Хи Им, Гван Чан, Су Ан Ким, Хэ Сук Ким, Ха Ныль Ким, Су Ро Ким, Чжун Сан Ю, Чжи Хун Чон (I), Дон Сок Ма, Мин Чон Ким, Кён Ён Ли, Сын Хён Гу

О фильме: Фильм про посмертные приключения пожарника и прохождение испытаний с целью пройти реинкарнацию.



Качество: BDRip 1080p
Формат: MKV
Видео: MPEG-4 AVC, 10.4 Mбит/с, 1920x804
Аудио 1: русский, AC3, 384 kbps, 6 ch, 48 kHz [авторский, Андрей Дольский]
Аудио 2: русский, AC3, 224 kbps, 2 ch, 48 kHz [закадровый двухголосый, Ворон и Wenlana /Zipper]
Аудио 3: корейский, DTS, 1509 kbps, 6 ch, 48 kHz [оригинал]
Субтитры 1: русские (форсированные)
Субтитры 2: русские
Субтитры 3: английские
Главы/чаптеры

Общее
Уникальный идентификатор : 207898256385272197809112378605325972779 (0x9C67BF6B9D83DA8CAA82D01746F2F52B)
Полное имя : D:\Video\С Богами. Два мира.2017.BDRip 1080p by msltel.mkv
Формат : Matroska
Версия формата : Version 4
Размер файла : 12,2 Гбайт
Продолжительность : 2 ч. 19 м.
Общий поток : 12,5 Мбит/сек
Название фильма : Rip by msltel
Дата кодирования : UTC 2020-02-14 07:01:05
Программа кодирования : mkvmerge v8.2.0 ('World of Adventure') 64bit
Библиотека кодирования : libebml v1.3.1 + libmatroska v1.4.2

Видео
Идентификатор : 1
Формат : AVC
Формат/Информация : Advanced Video Codec
Профиль формата : High@L4.1
Настройки формата : CABAC / 5 Ref Frames
Параметр CABAC формата : Да
Параметр RefFrames формата : 5 кадров
Идентификатор кодека : V_MPEG4/ISO/AVC
Продолжительность : 2 ч. 19 м.
Битрейт : 10,4 Мбит/сек
Ширина : 1920 пикселей
Высота : 804 пикселя
Соотношение сторон : 2,40:1
Режим частоты кадров : Постоянный
Частота кадров : 24,000 кадра/сек
Цветовое пространство : YUV
Субдискретизация насыщенности : 4:2:0
Битовая глубина : 8 бит
Тип развёртки : Прогрессивная
Бит/(Пиксели*Кадры) : 0.282
Размер потока : 10,2 Гбайт (83%)
Библиотека кодирования : x264 core 157 r2969 d4099dd
Настройки программы : cabac=1 / ref=5 / deblock=1:-1:-1 / analyse=0x3:0x113 / me=umh / subme=11 / psy=1 / psy_rd=1.00:0.15 / mixed_ref=1 / me_range=32 / chroma_me=1 / trellis=2 / 8x8dct=1 / cqm=0 / deadzone=21,11 / fast_pskip=0 / chroma_qp_offset=-3 / threads=6 / lookahead_threads=1 / sliced_threads=0 / nr=0 / decimate=1 / interlaced=0 / bluray_compat=0 / constrained_intra=0 / bframes=10 / b_pyramid=2 / b_adapt=2 / b_bias=0 / direct=1 / weightb=1 / open_gop=0 / weightp=2 / keyint=230 / keyint_min=23 / scenecut=40 / intra_refresh=0 / rc_lookahead=40 / rc=crf / mbtree=1 / crf=15.0 / qcomp=0.60 / qpmin=0 / qpmax=69 / qpstep=4 / vbv_maxrate=50000 / vbv_bufsize=62500 / crf_max=0.0 / nal_hrd=none / filler=0 / ip_ratio=1.40 / aq=1:1.00
Язык : Korean
Default : Да
Forced : Нет

Аудио #1
Идентификатор : 2
Формат : AC-3
Формат/Информация : Audio Coding 3
Коммерческое название : Dolby Digital
Идентификатор кодека : A_AC3
Продолжительность : 2 ч. 19 м.
Вид битрейта : Постоянный
Битрейт : 384 Кбит/сек
Каналы : 6 каналов
ChannelLayout : L R C LFE Ls Rs
Частота : 48,0 КГц
Частота кадров : 31,250 кадров/сек (1536 SPF)
Метод сжатия : С потерями
Размер потока : 383 Мбайт (3%)
Заголовок : Андрей Дольский
Язык : Russian
ServiceKind/String : Complete Main
Default : Да
Forced : Нет

Аудио #2
Идентификатор : 3
Формат : AC-3
Формат/Информация : Audio Coding 3
Коммерческое название : Dolby Digital
Идентификатор кодека : A_AC3
Продолжительность : 2 ч. 19 м.
Вид битрейта : Постоянный
Битрейт : 224 Кбит/сек
Каналы : 2 канала
ChannelLayout : L R
Частота : 48,0 КГц
Частота кадров : 31,250 кадров/сек (1536 SPF)
Метод сжатия : С потерями
Размер потока : 224 Мбайт (2%)
Заголовок : Ворон и Wenlana /Zipper
Язык : Russian
ServiceKind/String : Complete Main
Default : Нет
Forced : Нет

Аудио #3
Идентификатор : 4
Формат : DTS
Формат/Информация : Digital Theater Systems
Идентификатор кодека : A_DTS
Продолжительность : 2 ч. 19 м.
Вид битрейта : Постоянный
Битрейт : 1509 Кбит/сек
Каналы : 6 каналов
ChannelLayout : C L R Ls Rs LFE
Частота : 48,0 КГц
Частота кадров : 93,750 кадра/сек (512 SPF)
Битовая глубина : 24 бит
Метод сжатия : С потерями
Размер потока : 1,48 Гбайт (12%)
Заголовок : original
Язык : Korean
Default : Нет
Forced : Нет

Текст #1
Идентификатор : 5
Формат : UTF-8
Идентификатор кодека : S_TEXT/UTF8
Идентификатор кодека/Информация : UTF-8 Plain Text
Продолжительность : 2 ч. 11 м.
Битрейт : 1 бит/сек
ElementCount : 38
Размер потока : 1,61 Кбайт (0%)
Заголовок : русские форсир.
Язык : Russian
Default : Да
Forced : Да

Текст #2
Идентификатор : 6
Формат : UTF-8
Идентификатор кодека : S_TEXT/UTF8
Идентификатор кодека/Информация : UTF-8 Plain Text
Продолжительность : 2 ч. 12 м.
Битрейт : 79 бит/сек
ElementCount : 1483
Размер потока : 76,6 Кбайт (0%)
Заголовок : русские
Язык : Russian
Default : Нет
Forced : Нет

Текст #3
Идентификатор : 7
Формат : UTF-8
Идентификатор кодека : S_TEXT/UTF8
Идентификатор кодека/Информация : UTF-8 Plain Text
Продолжительность : 2 ч. 12 м.
Битрейт : 42 бит/сек
ElementCount : 1522
Размер потока : 41,6 Кбайт (0%)
Заголовок : английские
Язык : English
Default : Нет
Forced : Нет

Меню
00:00:00.000 : ko:Chapter 01
00:08:21.416 : ko:Chapter 02
00:21:58.208 : ko:Chapter 03
00:37:18.875 : ko:Chapter 04
00:49:27.083 : ko:Chapter 05
01:03:01.041 : ko:Chapter 06
01:18:03.375 : ko:Chapter 07
01:34:49.041 : ko:Chapter 08
01:45:32.916 : ko:Chapter 09
01:58:46.750 : ko:Chapter 10


"И не совершил там многих чудес по неверию их." (Евангелие от Матфея)
КУБКИ

СТАЖ

МЕДАЛИ
Награды:32

За отличные раздачи и качество (17) Почётный форумчанин (1) Верный Сид (11)

Аватара пользователя
Russia
msltel
Уважаемый Релизёр-Корсар
  • Торрент
Для скачивания торрента необходимо зарегистрироваться или войти на трекер.

Вернуться в Зарубежное кино (2011-2020 / HD Video)



Uptime по данным Ping-Admin.Ru - сервиса мониторинга доступности сайтов
Рейтинг@Mail.ru