logo
Международный русскоязычный
торрент-трекер
Menu
Поделиться с друзьями: 
Голосуй за Корсар и получай 1000 дублонов каждый день
Рейтинг торрент трекеров - UpTracker.ru

Русалка в Париже / Une sirène à Paris (2020, фэнтези, мелодрама, комедия, WEB-DL 1080p) | iTunes

Сообщение kisa1980 » 28 авг 2020, 22:10

Название: Русалка в Париже
Оригинальное название: Une sirène à Paris
Год выхода: 2020
Жанр: Фэнтези, мелодрама, комедия
Режиссер: Матиас Мальзьё
В ролях: Николя Дювошель, Мэрилин Лима, Романа Боринже, Чеки Карио, Росси де Пальма, Алексис Михалик, Лу Гала, Николас Уллман

О фильме: Он — талантливый артист с невероятной харизмой и прекрасным чувством юмора. Однако его сердце — неприступный бастион даже для самых сногсшибательных девушек Парижа. Всё изменится, когда, гуляя по ночной набережной Сены, он повстречает настоящую русалку. Теперь для музыканта не имеет значения, что любовь к этим красавицам веками губила сердца мужчин.



Страна: Франция
Студия: Entre Chien et Loup, Kinology, Overdrive Productions
Продолжительность: 01:38:13
Перевод: Дублированный | iTunes

Качество: WEB-DL 1080p
Видео: MPEG-4 AVC, 4435 Кбит/с, 1920x804
Аудио 1: Русский: AC3, 6 ch, 384 Кбит/с
Аудио 2: Французский: AC3, 6 ch, 384 Кбит/с
Субтитры: Русские (полные, форс.)

General
Unique ID : 211853889656104810242045675714792658760 (0x9F619332B3064F7BB121514EDDDC1748)
Complete name : G:Rusalka.v.Parizhe.2020.WEB-DL1080p.mkv
Format : Matroska
Format version : Version 4
File size : 3.64 GiB
Duration : 1 h 38 min
Overall bit rate : 5 309 kb/s
Encoded date : UTC 2020-08-28 16:52:12
Writing application : mkvmerge v8.3.0 ('Over the Horizon') 64bit
Writing library : libebml v1.3.1 + libmatroska v1.4.2

Video
ID : 1
Format : AVC
Format/Info : Advanced Video Codec
Format profile : High@L4
Format settings : CABAC / 5 Ref Frames
Format settings, CABAC : Yes
Format settings, Reference frames : 5 frames
Codec ID : V_MPEG4/ISO/AVC
Duration : 1 h 38 min
Bit rate : 4 435 kb/s
Width : 1 920 pixels
Height : 804 pixels
Display aspect ratio : 2.40:1
Frame rate mode : Constant
Frame rate : 25.000 FPS
Color space : YUV
Chroma subsampling : 4:2:0
Bit depth : 8 bits
Scan type : Progressive
Bits/(Pixel*Frame) : 0.115
Stream size : 3.04 GiB (84%)
Language : English
Default : Yes
Forced : No
Color range : Limited
Color primaries : BT.709
Transfer characteristics : BT.709
Matrix coefficients : BT.709

Audio #1
ID : 2
Format : AC-3
Format/Info : Audio Coding 3
Commercial name : Dolby Digital
Codec ID : A_AC3
Duration : 1 h 38 min
Bit rate mode : Constant
Bit rate : 384 kb/s
Channel(s) : 6 channels
Channel layout : L R C LFE Ls Rs
Sampling rate : 48.0 kHz
Frame rate : 31.250 FPS (1536 SPF)
Compression mode : Lossy
Stream size : 270 MiB (7%)
Title : [DUB] DD 5.1 @ 384 kbps (iTunes)
Language : Russian
Service kind : Complete Main
Default : Yes
Forced : No

Audio #2
ID : 3
Format : AC-3
Format/Info : Audio Coding 3
Commercial name : Dolby Digital
Codec ID : A_AC3
Duration : 1 h 38 min
Bit rate mode : Constant
Bit rate : 384 kb/s
Channel(s) : 6 channels
Channel layout : L R C LFE Ls Rs
Sampling rate : 48.0 kHz
Frame rate : 31.250 FPS (1536 SPF)
Compression mode : Lossy
Stream size : 270 MiB (7%)
Title : [ORIGINAL] DD 5.1 @ 384 kbps (iTunes)
Language : French
Service kind : Complete Main
Default : No
Forced : No

Text #1
ID : 4
Format : UTF-8
Codec ID : S_TEXT/UTF8
Codec ID/Info : UTF-8 Plain Text
Title : Forced
Language : Russian
Default : Yes
Forced : No

Text #2
ID : 5
Format : UTF-8
Codec ID : S_TEXT/UTF8
Codec ID/Info : UTF-8 Plain Text
Title : Full-length
Language : Russian
Default : No
Forced : No

Menu
00:00:00.000 : en:Глава 1
00:02:41.040 : en:Глава 2
00:12:12.240 : en:Глава 3
00:20:44.640 : en:Глава 4
00:31:46.840 : en:Глава 5
00:35:01.480 : en:Глава 6
00:41:12.080 : en:Глава 7
00:49:32.120 : en:Глава 8
00:58:28.920 : en:Глава 9
01:12:25.680 : en:Глава 10
01:20:05.760 : en:Глава 11
01:31:30.880 : en:Глава 12
КУБКИ

СТАЖ

МЕДАЛИ
Награды:121

За активную помощь проекту VIP (12) Лучший по количеству кубков (4) За отличные раздачи и качество (46) За подробное оформление раздач (11) За отличные комментарии (11) Почётный форумчанин (4) Верный Сид (30) За участие в конкурсах/играх (2)

Аватара пользователя
Тортуга
kisa1980
Главный помощник Администратора-Корсар
  • Торрент
Для скачивания торрента необходимо зарегистрироваться или войти на трекер.

Сообщение poletov » 16 сен 2020, 11:04

Французское фэнтезийная мелодрама с комедией впридачу.Сказка,да и только.Музыка отличная. Добрый фильм,История любви русалки и мужчины, который далек от любви.Русалка уже убила 44 мужчин,которые были ей очарованы и самое опасное - это ее голос.Очень приятное лирическое кино.Рекомендую фильм для просмотра и приятного всем зрелища.
КУБКИ

СТАЖ

МЕДАЛИ
Награды:22

За отличные раздачи и качество (1) За отличные комментарии (18) Почётный форумчанин (2) Верный Сид (1)

Аватара пользователя
Russia
poletov
Заслуженный Корсар


Вернуться в Зарубежное кино (2011-2020 / HD Video)



Рейтинг@Mail.ru