logo
Международный русскоязычный
торрент-трекер
Menu
Поделиться с друзьями: 
Голосуй за Корсар и получай 1000 дублонов каждый день
Рейтинг торрент трекеров - UpTracker.ru

Рождество (2012, Документально-постановочный, SATRip-AVC) - KORSAR

Сообщение Sanechek » 07 янв 2017, 14:32

Название: Рождество
Год выхода: 2012
Жанр: Документально-постановочный
Режиссер: Саида Медведева

О фильме: Что такое Рождество - библейская история, детский праздник или нечто большее? Мы празднуем Новый год и Рождество. Но если Новый год всем нам понятен, то что мы знаем о празднике Рождества Христова? Что он значит для современного человека, вооруженного научными знаниями и техническими достижениями, но при этом безконечно одинокого и осознающего хрупкость своей жизни? Фильм не только рассказывает об истории, произошедшей больше двух тысяч лет назад, он пытается ответить на самые сокровенные и сложные вопросы - о месте человека в этом мире, о надежде на счастье, о любви, о вере. Этот рассказ начнется с первого века до нашей эры, с могущественной Римской империи, в которой все хотят быть счастливыми и никто не хочет умирать. А в Вавилоне и Персии уверены, что на земле вот-вот родится Спаситель или Царь Царей, предсказанный священными книгами. Вавилонские жрецы-астрономы пытаются вычислить время и место его рождения по движению планет. Много веков спустя астрономов назовут волхвами. А звезду – Вифлеемской. И на свет этой звезды Волхвы отправляются в путь, чтобы поклониться Спасителю. И вот на дальней окраине империи, в глухом селе родился Ребенок. С тех пор прошло больше двух тысяч лет. Сотни миллионов людей во всем мире отмечают это событие как самый радостный, волшебный праздник. Оно произошло в эпоху, когда человечество стояло на распутье. И стало во всех смыслах началом новой эры мировой истории. Что принес в мир Младенец Иисус? Почему Вифлеемская звезда ознаменовала начало новой эры истории человечества? И что такое Рождество – трогательная история, традиция, детский праздник или нечто большее? В фильм вошли постановочные реконструкции евангельских сюжетов: встреча Пречистой Девы Марии и праведной Елизаветы, поклонение пастухов Младенцу, дары волхвов и Сретенье Господне. Зритель узнает о том, почему в праздник Благовещенья выпускают голубей, а в праздник Рождества Христова в храмах ставят елки. А также о том, что такое Сочельник и откуда появилась традиция дарить на Рождество подарки. В фильме принимают участие: Святейший Патриарх Московский и всея Руси Кирилл, Протоиерей Алексий Уминский, настоятель храма св. Троицы в Хохлах, Протоиерей Максим Козлов, настоятель Храма святой мученицы Татианы, Владимир Легойда, председатель Синодального информационного отдела МП РПЦ, Елизавета Глинка, врач паллиативной медицины, руководитель фонда "Справедливая помощь", Эмир Кустурица, кинорежиссер (Сербия), Люк Ферри, философ (Франция), Алена Долецкая, журналист, Илья Демичев, кинорежиссер, Валерий Шабуров, историк.

Выпущено: Россия
Продолжительность: 00:50:06
Перевод: не требуется

Файл
Кодек: х264
Качество: SATRip-AVC
Видео: MPEG-4 AVC, 646x576@940x576, 25 fps, 2200 Кбит/с
Звук: AC3, 2 ch, 192 Кбит/с

Общее
Уникальный идентификатор : 195784043047896340374253922863328504550 (0x934AA296D3533BF79D258BCCC5A3AAE6)
Полное имя : D:\Рождество (2012).mkv
Формат : Matroska
Версия формата : Version 2
Размер файла : 858 Мбайт
Продолжительность : 50 м. 6 с.
Общий поток : 2394 Кбит/сек
Дата кодирования : UTC 2016-12-30 16:55:53
Программа кодирования : mkvmerge v7.8.0 ('River Man') 32bit built on Apr 3 2015 12:11:22
Библиотека кодирования : libebml v1.3.1 + libmatroska v1.4.2

Видео
Идентификатор : 1
Формат : AVC
Формат/Информация : Advanced Video Codec
Профиль формата : High@L4.1
Параметр CABAC формата : Да
Параметр ReFrames формата : 12 кадров
Идентификатор кодека : V_MPEG4/ISO/AVC
Продолжительность : 50 м. 6 с.
Битрейт : 2200 Кбит/сек
Ширина : 646 пикселей
Высота : 576 пикселей
Соотношение сторон : 16:10
Соотношение сторон в оригинале : 16:10
Режим частоты кадров : Постоянный
Частота кадров : 25,000 кадров/сек
Цветовое пространство : YUV
Субдискретизация насыщенности : 4:2:0
Битовая глубина : 8 бит
Тип развёртки : Прогрессивная
Бит/(Пиксели*Кадры) : 0.236
Размер потока : 772 Мбайт (90%)
Библиотека кодирования : x264 core 146 r2538 121396c
Настройки программы : cabac=1 / ref=12 / deblock=1:-2:-2 / analyse=0x3:0x133 / me=umh / subme=10 / psy=1 / psy_rd=1.05:0.10 / mixed_ref=1 / me_range=32 / chroma_me=1 / trellis=2 / 8x8dct=1 / cqm=0 / deadzone=21,11 / fast_pskip=0 / chroma_qp_offset=-3 / threads=3 / lookahead_threads=1 / sliced_threads=0 / nr=0 / decimate=0 / interlaced=0 / bluray_compat=0 / constrained_intra=0 / bframes=16 / b_pyramid=2 / b_adapt=2 / b_bias=0 / direct=3 / weightb=1 / open_gop=0 / weightp=2 / keyint=250 / keyint_min=25 / scenecut=40 / intra_refresh=0 / rc=2pass / mbtree=0 / bitrate=2200 / ratetol=1.0 / qcomp=0.63 / qpmin=0 / qpmax=69 / qpstep=4 / cplxblur=20.0 / qblur=0.5 / ip_ratio=1.25 / pb_ratio=1.30 / aq=1:1.00
Язык : Russian
Default : Да
Forced : Нет
Цветовой диапазон : Limited
Основные цвета : BT.601 PAL
Характеристики трансфера : BT.470 System B, BT.470 System G
Коэффициенты матрицы : BT.601

Аудио
Идентификатор : 2
Формат : AC-3
Формат/Информация : Audio Coding 3
Расширение режима : CM (complete main)
Параметр Endianness формата : Big
Идентификатор кодека : A_AC3
Продолжительность : 50 м. 6 с.
Вид битрейта : Постоянный
Битрейт : 192 Кбит/сек
Каналы : 2 канала
Расположение каналов : Front: L R
Частота : 48,0 КГц
Частота кадров : 31,250 кадров/сек (1536 spf)
Битовая глубина : 16 бит
Метод сжатия : С потерями
Размер потока : 68,8 Мбайт (8%)
Язык : Russian
Default : Да
Forced : Нет
Последний раз редактировалось Sanechek 07 янв 2017, 21:38, всего редактировалось 1 раз.
КУБКИ

СТАЖ

МЕДАЛИ
Награды:71

Пожизненный VIP+ (1) За активную помощь проекту VIP (4) Лучший по количеству кубков (9) За отличные раздачи и качество (24) За подробное оформление раздач (2) За отличные комментарии (7) Почётный форумчанин (1) Верный Сид (22)

Аватара пользователя
СССР
Sanechek
Главный Модератор-Корсар
Раздачи группы KORSAR доступны раздавшим не менее 15 гиг и зарегистрированным от 14 дней, а перезаливать разрешено спустя 14 дней после публикации и с обязательным добавлением банера!!!
  • Торрент
Для скачивания торрента необходимо зарегистрироваться или войти на трекер.

Сообщение Sanechek » 07 янв 2017, 14:45

Всех с Рождеством Христовым!!!
КУБКИ

СТАЖ

МЕДАЛИ
Награды:71

Пожизненный VIP+ (1) За активную помощь проекту VIP (4) Лучший по количеству кубков (9) За отличные раздачи и качество (24) За подробное оформление раздач (2) За отличные комментарии (7) Почётный форумчанин (1) Верный Сид (22)

Аватара пользователя
СССР
Sanechek
Главный Модератор-Корсар

Сообщение kwazar312 » 07 янв 2017, 14:49

Спасибо за раздачу,интересная передача.Всех с праздником.
КУБКИ

СТАЖ

МЕДАЛИ
Награды:149

Пожизненный VIP+ (4) За активную помощь проекту VIP (14) Лучший по количеству кубков (46) За отличные раздачи и качество (3) За отличные комментарии (26) Почётный форумчанин (1) Верный Сид (49) За участие в конкурсах/играх (6)

Аватара пользователя
kwazar312
Заслуженный Корсар-VIP+

Сообщение filbi1976 » 07 янв 2017, 19:08

Саша, спасибо! :hi:
С Рождеством!!!
The Show Must Go On
Посмотреть товар в профиле пользователя

Нажмите на изображение, чтобы увидеть в полный размер  
1 шт.
Нажмите на изображение, чтобы увидеть в полный размер  
1 шт.
Нажмите на изображение, чтобы увидеть в полный размер  
1 шт.
Нажмите на изображение, чтобы увидеть в полный размер  
1 шт.
Нажмите на изображение, чтобы увидеть в полный размер  
1 шт.
Нажмите на изображение, чтобы увидеть в полный размер  
1 шт.
Нажмите на изображение, чтобы увидеть в полный размер  
1 шт.
Нажмите на изображение, чтобы увидеть в полный размер  
1 шт.
Нажмите на изображение, чтобы увидеть в полный размер  
1 шт.
Нажмите на изображение, чтобы увидеть в полный размер  
1 шт.
Нажмите на изображение, чтобы увидеть в полный размер  
1 шт.
Нажмите на изображение, чтобы увидеть в полный размер  
1 шт.
Нажмите на изображение, чтобы увидеть в полный размер  
1 шт.
Нажмите на изображение, чтобы увидеть в полный размер  
1 шт.
Нажмите на изображение, чтобы увидеть в полный размер  
1 шт.
КУБКИ

СТАЖ

МЕДАЛИ
Награды:175

За активную помощь проекту VIP (5) Лучший по количеству кубков (1) За отличные раздачи и качество (115) За подробное оформление раздач (4) За отличные комментарии (8) Почётный форумчанин (3) Верный Сид (35) За участие в конкурсах/играх (2) 3 место в конкурсах/играх (1)

Аватара пользователя
Тортуга
filbi1976
Администратор-Корсар


Вернуться в Христианство



Рейтинг@Mail.ru