logo
Международный русскоязычный
торрент-трекер
Menu
Doublon
Поделиться с друзьями: 
Голосуй за Корсар и получи 400 дублонов
Рейтинг торрент трекеров - UpTracker.ru

Рождественская звезда / The Christmas Star (1986, Драма, семейный, WEB-DL 1080p) - KORSAR

Сообщение MZMA » 06 дек 2018, 03:41

Название: Рождественская звезда
Оригинальное название: The Christmas Star
Год выпуска: 1986
Выпущено: США, Lake Walloon Productions, Walt Disney Pictures, Walt Disney Television
Жанр: Драма, семейный
Режиссер: Алан Шапиро
В ролях: Эдвард Эснер, Рене Обержонуа, Джим Метцлер, Сьюзен Тиррел, Карен Ландри, Алан Норт, Филип Брунс, Николас Ван Бурек, Викки Уочоуп, Зэкари Энсли

О фильме: Хорас Макникл второй раз попадает в тюрьму за подделку документов. В неделю перед Рождеством он бежит оттуда, переодетый Санта Клаусом. Макникл скрывается от полиции в близлежащем пригороде, где ему помогают двое местных мальчишек, которые думают, что он настоящий Санта Клаус. Макникл надеется, что дети помогут ему в его темных делах, но вместо этого они помогают ему понять истинную природу Рождества.



Продолжительность: 01:33:43
Перевод: Любительский
Субтитры: Русские, английские
Навигация по главам: Есть

Качество: WEB-DL 1080p
Видео: MPEG-4 AVC, 10,9 Мбит/сек, 1440x1080, 23,976 кадра/сек
Аудио #1: AC3, 2 ch, 192 Кбит/сек | Русский, любительский (одноголосый закадровый) Семен Ващенко
Аудио #2: EAC3, 2 ch, 224 Кбит/сек | Английский, оригинал

Сборка:


Общее
Уникальный идентификатор : 236869331157156170090657840178306939341 (0xB2335FAFEE826787A2328E71F65EF9CD)
Полное имя : Рождественская.звезда.1986.WEB-DL.1080p.mkv
Формат : Matroska
Версия формата : Version 2
Размер файла : 7,58 Гбайт
Продолжительность : 1 ч. 33 м.
Режим общего битрейта : Переменный
Общий поток : 11,6 Мбит/сек
Дата кодирования : UTC 2018-12-06 00:11:38
Программа кодирования : mkvmerge v5.8.0 ('No Sleep / Pillow') built on Sep 2 2012 15:37:04
Библиотека кодирования : libebml v1.2.3 + libmatroska v1.3.0

Видео
Идентификатор : 1
Формат : AVC
Формат/Информация : Advanced Video Codec
Профиль формата : High@L4
Настройки формата : CABAC / 4 Ref Frames
Параметр CABAC формата : Да
Параметр RefFrames формата : 4 кадра
Идентификатор кодека : V_MPEG4/ISO/AVC
Продолжительность : 1 ч. 33 м.
Вид битрейта : Переменный
Битрейт : 10,9 Мбит/сек
Максимальный битрейт : 15,0 Мбит/сек
Ширина : 1440 пикселей
Высота : 1080 пикселей
Соотношение сторон : 4:3
Режим частоты кадров : Постоянный
Частота кадров : 23,976 (24000/1001) кадра/сек
Цветовое пространство : YUV
Субдискретизация насыщенности : 4:2:0
Битовая глубина : 8 бит
Тип развёртки : Прогрессивная
Бит/(Пиксели*Кадры) : 0.293
Размер потока : 7,16 Гбайт (94%)
Библиотека кодирования : x264 core 148 r2623 d5b2374
Настройки программы : cabac=1 / ref=4 / deblock=1:-1:-1 / analyse=0x3:0x133 / me=umh / subme=9 / psy=1 / psy_rd=1.00:0.15 / mixed_ref=1 / me_range=24 / chroma_me=1 / trellis=2 / 8x8dct=1 / cqm=0 / deadzone=21,11 / fast_pskip=1 / chroma_qp_offset=-3 / threads=34 / lookahead_threads=5 / sliced_threads=0 / nr=150 / decimate=1 / interlaced=0 / bluray_compat=0 / constrained_intra=0 / bframes=8 / b_pyramid=2 / b_adapt=2 / b_bias=0 / direct=3 / weightb=1 / open_gop=0 / weightp=2 / keyint=120 / keyint_min=61 / scenecut=0 / intra_refresh=0 / rc_lookahead=120 / rc=crf / mbtree=1 / crf=18.0 / qcomp=0.60 / qpmin=0 / qpmax=69 / qpstep=4 / vbv_maxrate=15000 / vbv_bufsize=31250 / crf_max=0.0 / nal_hrd=vbr / filler=0 / ip_ratio=1.40 / aq=3:1.00
Язык : English
По умолчанию : Да
Принудительно : Нет
Цветовой диапазон : Limited
Основные цвета : BT.709
Характеристики трансфера : BT.709
Коэффициенты матрицы : BT.709

Аудио #1
Идентификатор : 2
Формат : AC-3
Формат/Информация : Audio Coding 3
Идентификатор кодека : A_AC3
Продолжительность : 1 ч. 33 м.
Вид битрейта : Постоянный
Битрейт : 192 Кбит/сек
Каналы : 2 канала
Расположение каналов : Front: L R
Частота : 48,0 КГц
Частота кадров : 31,250 кадров/сек (1536 SPF)
Битовая глубина : 16 бит
Метод сжатия : С потерями
Размер потока : 129 Мбайт (2%)
Заголовок : VO | С. Ващенко
Язык : Russian
По умолчанию : Да
Принудительно : Нет

Аудио #2
Идентификатор : 3
Формат : E-AC-3
Формат/Информация : Enhanced Audio Coding 3
Идентификатор кодека : A_EAC3
Продолжительность : 1 ч. 33 м.
Вид битрейта : Постоянный
Битрейт : 224 Кбит/сек
Каналы : 2 канала
Расположение каналов : Front: L R
Частота : 48,0 КГц
Частота кадров : 187,500 кадров/сек (256 SPF)
Метод сжатия : С потерями
Размер потока : 150 Мбайт (2%)
Заголовок : Original
Язык : English
По умолчанию : Нет
Принудительно : Нет

Текст #1
Идентификатор : 4
Формат : UTF-8
Идентификатор кодека : S_TEXT/UTF8
Идентификатор кодека/Информация : UTF-8 Plain Text
Язык : Russian
По умолчанию : Нет
Принудительно : Нет

Текст #2
Идентификатор : 5
Формат : UTF-8
Идентификатор кодека : S_TEXT/UTF8
Идентификатор кодека/Информация : UTF-8 Plain Text
Язык : English
По умолчанию : Нет
Принудительно : Нет

Меню
00:00:00.000 : en:01. The Christmas Story
00:10:06.379 : en:02. Troublemaker
00:22:05.747 : en:03. The Wrong Santa
00:34:00.812 : en:04. Stolen Money
00:45:28.566 : en:05. Hidden Secrets
00:55:22.659 : en:06. Santa's Little Helpers
01:06:49.612 : en:07. Train Of Life
01:16:57.786 : en:08. Caught!
01:23:31.847 : en:09. Christmas Magic
01:32:22.410 : en:10. End Credits

• Исходник видео WEB-DL Amazon.
КУБКИ

СТАЖ

МЕДАЛИ
Награды:82

За помощь проекту (3) Лучший по количеству кубков (6) За отличные раздачи и качество (46) За подробное оформление раздач (11) Верный Сид (14)

Аватара пользователя
СССР
MZMA
Главный Модератор-Корсар
Раздачи группы KORSAR разрешено перезаливать спустя сутки после публикации
  • Торрент
Для скачивания торрента необходимо зарегистрироваться или войти на трекер.

Вернуться в Зарубежное кино (1981-1990 / HD Video)



Uptime по данным Ping-Admin.Ru - сервиса мониторинга доступности сайтов
Рейтинг@Mail.ru Голосуйте за наш сайт в каталоге Rubo.Ru