logo
Международный русскоязычный
торрент-трекер

Ревизор (1982, Телеспектакль, экранизация, DVDRip-AVC)

Сообщение filbi1976 » 08 дек 2016, 21:09

Название: Ревизор
Год выхода: 1982
Жанр: Телеспектакль, экранизация
Режиссер: Валентин Плучек
В ролях: Анатолий Папанов, Андрей Миронов, Александр Ширвиндт, Михаил Державин, Спартак Мишулин

О фильме: Спектакль Московского театра Сатиры по одноименной комедии Н. В. Гоголя. Гениальный писатель дал возможность современникам посмотреть на себя со стороны, заставив их смеяться над привычными вещами. Он вывел на сиену практически все отрицательные характеры и показал все общественные пороки - взяточничество, казнокрадство, лень, угодничество, произвол, присущие людям независимо оттого, в каком веке они живут Гениальность сюжета комедии состоит в том, что в центре пьесы оказывается не традиционный комедийный плут, а герой, который и не догадывается, поначалу, о том, что происходит. Хлестаков - это всего лишь "щепка, попавшая в водоворот" обстоятельств. Главным же действующим лицом пьесы является страх, возникающий после исторической фразы городничего: "...к нам едет ревизор!", возрастающий от действия к действию и парализующий всех героев в финале пьесы; страх, так хорошо знакомый нечистым на руку чиновникам во все времена.

Выпущено: СССР
Продолжительность: 03:01:24
Перевод: не требуется

Файл
Кодек: х264
Качество: DVDRip-AVC
Видео: MPEG-4 AVC, 692x572@738x572, 25 fps, 2950 Кбит/с
Звук: AC3, 6 ch, 448 Кбит/с, AC3, 2 ch, 192 Кбит/с


x264 [info]: frame I:1185 Avg QP:17.96 size: 65986
x264 [info]: frame P:59804 Avg QP:19.99 size: 33973
x264 [info]: frame B:211125 Avg QP:22.30 size: 9019
=======================================================================================
Общее
Уникальный идентификатор : 230632948241561483932714316355037181618 (0xAD824A452D958E238B4843EA602E36B2)
Полное имя : D:\Ревизор_1982-DVDRip-AVC_(Спектакль).mkv
Формат : Matroska
Версия формата : Version 2
Размер файла : 4,55 Гбайт
Продолжительность : 3 ч. 1 м.
Общий поток : 3592 Кбит/сек
Дата кодирования : UTC 2016-12-08 20:57:33
Программа кодирования : mkvmerge v5.8.0 ('No Sleep / Pillow') built on Sep 2 2012 15:37:04
Библиотека кодирования : libebml v1.2.3 + libmatroska v1.3.0

Видео
Идентификатор : 1
Формат : AVC
Формат/Информация : Advanced Video Codec
Профиль формата : High@L4.1
Параметр CABAC формата : Да
Параметр ReFrames формата : 14 кадров
Идентификатор кодека : V_MPEG4/ISO/AVC
Продолжительность : 3 ч. 1 м.
Битрейт : 2950 Кбит/сек
Ширина : 692 пикселя
Высота : 572 пикселя
Соотношение сторон : 1,290
Режим частоты кадров : Постоянный
Частота кадров : 25,000 кадров/сек
Цветовое пространство : YUV
Субдискретизация насыщенности : 4:2:0
Битовая глубина : 8 бит
Тип развёртки : Прогрессивная
Бит/(Пиксели*Кадры) : 0.298
Размер потока : 3,65 Гбайт (80%)
Библиотека кодирования : x264 core 148 r2721kMod 72d53ab
Настройки программы : cabac=1 / ref=14 / deblock=1:-2:-2 / analyse=0x3:0x133 / me=umh / subme=10 / psy=1 / fade_compensate=0.00 / psy_rd=1.05:0.10 / mixed_ref=1 / me_range=32 / chroma_me=1 / trellis=2 / 8x8dct=1 / cqm=0 / deadzone=21,11 / fast_pskip=0 / chroma_qp_offset=-3 / threads=12 / lookahead_threads=2 / sliced_threads=0 / nr=0 / decimate=0 / interlaced=0 / bluray_compat=0 / constrained_intra=0 / fgo=0 / bframes=8 / b_pyramid=2 / b_adapt=2 / b_bias=0 / direct=3 / weightb=1 / open_gop=0 / weightp=2 / keyint=250 / keyint_min=25 / scenecut=40 / intra_refresh=0 / rc=2pass / mbtree=0 / bitrate=2950 / ratetol=1.0 / qcomp=0.63 / qpmin=0 / qpmax=39 / qpstep=4 / cplxblur=20.0 / qblur=0.5 / ip_ratio=1.20 / pb_ratio=1.30 / aq=1:0.90
Язык : English
Default : Да
Forced : Нет
Цветовой диапазон : Limited
Основные цвета : BT.601 PAL
Характеристики трансфера : BT.470 System B, BT.470 System G
Коэффициенты матрицы : BT.601

Аудио #1
Идентификатор : 2
Формат : AC-3
Формат/Информация : Audio Coding 3
Расширение режима : ME (music and effects)
Параметр Endianness формата : Big
Идентификатор кодека : A_AC3
Продолжительность : 3 ч. 1 м.
Вид битрейта : Постоянный
Битрейт : 448 Кбит/сек
Каналы : 6 каналов
Расположение каналов : Front: L C R, Side: L R, LFE
Частота : 48,0 КГц
Частота кадров : 31,250 кадров/сек (1536 spf)
Битовая глубина : 16 бит
Метод сжатия : С потерями
Размер потока : 581 Мбайт (12%)
Язык : Russian
Default : Да
Forced : Нет

Аудио #2
Идентификатор : 3
Формат : AC-3
Формат/Информация : Audio Coding 3
Расширение режима : CM (complete main)
Параметр Endianness формата : Big
Идентификатор кодека : A_AC3
Продолжительность : 3 ч. 1 м.
Вид битрейта : Постоянный
Битрейт : 192 Кбит/сек
Каналы : 2 канала
Расположение каналов : Front: L R
Частота : 48,0 КГц
Частота кадров : 31,250 кадров/сек (1536 spf)
Битовая глубина : 16 бит
Метод сжатия : С потерями
Размер потока : 249 Мбайт (5%)
Язык : Russian
Default : Нет
Forced : Нет

Аватара пользователя
filbi1976
Главный-Корсар
 
Месяцев на трекере: 5Месяцев на трекере: 5Месяцев на трекере: 5Месяцев на трекере: 5Месяцев на трекере: 5
 
Раздал: 53.78 ТБ
Зарегистрирован: 03 авг 2016, 12:59
Откуда: СССР

  • Торрент
Автор: filbi1976 Хэш: ---
Добавлен: 08 дек 2016, 21:09 Приватный: Нет (DHT включён)
Статус: Проверен
Размер: 4.55 ГБ (4 887 582 374 байт)
Изменил:
---
Скачали: 8 (Раздающих: 88%)
Причина:
---
Здоровье: 100%
Сидеров: 7 Личеров: 0
Скорость раздачи: 0 байт/сек Скорость скачивания: 0 байт/сек
Последний сидер: 3 минуты 59 секунд назад Последний личер: 21 день 19 часов 44 минуты 33 секунды назад
Для скачивания торрента необходимо зарегистрироваться или войти на трекер.

Сообщение filbi1976 » 08 дек 2016, 21:10

Исходник на три с минусом, сделал на три с плюсом.
Аватара пользователя
filbi1976
Главный-Корсар
 
Месяцев на трекере: 5Месяцев на трекере: 5Месяцев на трекере: 5Месяцев на трекере: 5Месяцев на трекере: 5
 
Раздал: 53.78 ТБ
Зарегистрирован: 03 авг 2016, 12:59
Откуда: СССР


Сообщение Digor » 08 дек 2016, 22:17

Вот здорово, спасибо огромное, Сергей! :hi: :hi: :hi:
Отличный спектакль, блестящие актеры!
Помню, в 83-м был театре на этом спектакле, люди тогда шли в театр, как на праздник, и они его на этом спектакле получили, эти 3 часа запомнились на всю жизнь.
Аватара пользователя
Digor
Главный Модератор-Корсар
 
Месяцев на трекере: 5Месяцев на трекере: 5Месяцев на трекере: 5Месяцев на трекере: 5Месяцев на трекере: 5
 
Раздал: 3.09 ТБ
Зарегистрирован: 04 авг 2016, 20:25
Откуда: СССР

Награды: 1
За помощь проекту (1)

Сообщение mister.hats » 08 дек 2016, 22:52

Отлично :drinks: :dance: :music: :good:
Тот кто не с нами,тот против нас
Аватара пользователя
mister.hats
Корсар-Вип
 
Месяцев на трекере: 5Месяцев на трекере: 5Месяцев на трекере: 5Месяцев на трекере: 5Месяцев на трекере: 5
 
Раздал: 808.67 ГБ
Зарегистрирован: 03 авг 2016, 13:45
Откуда: СССР

Награды: 1
За помощь проекту (1)

Сообщение verybigpapa » 09 дек 2016, 03:40

Весь цвет театра Сатиры! Уважаемый filbi1976, огромнейшее Вам спасибо за этот прекрасный спектакль! :hi:
Улыбайтесь, господа! Улыбайтесь!
Аватара пользователя
verybigpapa
Корсар-Вип
 
Месяцев на трекере: 5Месяцев на трекере: 5Месяцев на трекере: 5Месяцев на трекере: 5Месяцев на трекере: 5
 
Раздал: 173.13 ГБ
Зарегистрирован: 03 авг 2016, 16:00
Откуда: СССР

Награды: 1
За помощь проекту (1)

Сообщение SKYTALETZ » 09 дек 2016, 10:05

Отличный спектакль, спасибо! :hi:
Аватара пользователя
SKYTALETZ
Корсар
 
Месяцев на трекере: 2Месяцев на трекере: 2
 
Раздал: 35.17 ГБ
Зарегистрирован: 18 ноя 2016, 14:43


Сообщение filbi1976 » 09 дек 2016, 20:19

Всем пожалуйста! :hi:
Аватара пользователя
filbi1976
Главный-Корсар
 
Месяцев на трекере: 5Месяцев на трекере: 5Месяцев на трекере: 5Месяцев на трекере: 5Месяцев на трекере: 5
 
Раздал: 53.78 ТБ
Зарегистрирован: 03 авг 2016, 12:59
Откуда: СССР



Вернуться в Фильмы-спектакли, театральные постановки

cron