logo
Международный русскоязычный
торрент-трекер
Menu

Doublon
Поделиться с друзьями: 
Голосуй за Корсар и получи 150 дублонов
Рейтинг торрент трекеров - UpTracker.ru

Репортаж / [Rec] (2007, ужасы, триллер, BDRip 720p)

Сообщение V_ad » 16 апр 2018, 11:11

Название: Репортаж
Оригинальное название: Rec ([Rec])
Год выпуска: 2007
Жанр: Ужасы, триллер
Выпущено: Испания, Canal+ Espana, Castelao Producciones S.A., Filmax, Generalitat de Catalunya, Institut Catala de Finances, Institut Catala de les Industries Culturals, Instituto de Credito Oficial (ICO), Instituto de la Cinematografia y de las Artes Audiovisuales (ICAA), Television Espanola (TVE)
Режиссер: Хаум Балагуэро, Пако Плаза
В ролях: Мануэла Веласко, Ферран Терраса, Пабло Россо, Клаудиа Фонт, Карлос Ласарте, Мария Тереза Ортега, Хорхе Серрано, Хавьер Ботет, Мануэль Брончуд, Марта Карбонелл

О фильме: Все журналисты жаждут сенсаций. Но начинающий телерепортер Анжела Видал из хроники происшествий - жаждет особенно страстно. С завидным упорством она ищет уникальный материал, а потому выезжает с командой спасателей на место жуткого происшествия в большом жилом доме. Прибыв туда, Анжела, азартно занятая работой, не сразу понимает, откуда именно она ведет свой репортаж. Осознание жуткой реальности приходит слишком поздно. Жители дома, пораженные страшным вирусом, один за другим превращаются в зомби. Чтобы зараза не вырвалась на улицы города, власти заблокировали дом - выхода нет. Но телекамера будет работать до конца...



Продолжительность: 01:18:27
Перевод: Дублированный, авторский
Субтитры: Русские, английские
Качество: BDRip (720p)
Видео: MPEG-4 AVC, 6627 Кбит/с, 1280x692, 23.976 кадр/с
Аудио #1: Русский (AC3, 6 ch, 448 Кбит/с) - дублированный
Аудио #2: Русский (AC3, 6 ch, 448 Кбит/с) - авторский (Андрей Дольский)
Аудио #3: Испанский (AC3, 6 ch, 448 Кбит/с)

Формат : Matroska
Версия формата : Version 2
Размер файла : 4,37 Гбайт
Продолжительность : 1 ч. 18 м.
Общий поток : 7962 Кбит/сек
Название фильма : ~V ad~
Дата кодирования : UTC 2018-04-16 05:22:03
Программа кодирования : mkvmerge v6.5.0 ('Isn't she lovely') built on Oct 20 2013 12:50:05
Библиотека кодирования : libebml v1.3.0 + libmatroska v1.4.1
Обложка : Yes
Attachments : cover.jpg

Видео
Идентификатор : 1
Формат : AVC
Формат/Информация : Advanced Video Codec
Профиль формата : High@L4.1
Настройки формата : CABAC / 9 Ref Frames
Параметр CABAC формата : Да
Параметр RefFrames формата : 9 кадров
Идентификатор кодека : V_MPEG4/ISO/AVC
Продолжительность : 1 ч. 18 м.
Битрейт : 6627 Кбит/сек
Ширина : 1280 пикселей
Высота : 692 пикселя
Соотношение сторон : 1,85:1
Режим частоты кадров : Постоянный
Частота кадров : 23,976 (24000/1001) кадра/сек
Цветовое пространство : YUV
Субдискретизация насыщенности : 4:2:0
Битовая глубина : 8 бит
Тип развёртки : Прогрессивная
Бит/(Пиксели*Кадры) : 0.312
Размер потока : 3,55 Гбайт (81%)
Заголовок : ~V~
Библиотека кодирования : x264 core 155 r2901 7d0ff22
Настройки программы : cabac=1 / ref=9 / deblock=1:-3:-3 / analyse=0x3:0x133 / me=umh / subme=11 / psy=1 / psy_rd=1.00:0.00 / mixed_ref=1 / me_range=32 / chroma_me=1 / trellis=2 / 8x8dct=1 / cqm=0 / deadzone=21,11 / fast_pskip=0 / chroma_qp_offset=-2 / threads=12 / lookahead_threads=1 / sliced_threads=0 / nr=0 / decimate=0 / interlaced=0 / bluray_compat=0 / constrained_intra=0 / bframes=8 / b_pyramid=2 / b_adapt=2 / b_bias=0 / direct=3 / weightb=1 / open_gop=0 / weightp=2 / keyint=240 / keyint_min=23 / scenecut=40 / intra_refresh=0 / rc=2pass / mbtree=0 / bitrate=6627 / ratetol=1.0 / qcomp=0.76 / qpmin=0 / qpmax=69 / qpstep=4 / cplxblur=20.0 / qblur=0.5 / ip_ratio=1.20 / pb_ratio=1.30 / aq=3:0.80
Язык : Английский
Default : Да
Forced : Нет

Аудио #1
Идентификатор : 2
Формат : AC-3
Формат/Информация : Audio Coding 3
Идентификатор кодека : A_AC3
Продолжительность : 1 ч. 18 м.
Вид битрейта : Постоянный
Битрейт : 448 Кбит/сек
Каналы : 6 каналов
Расположение каналов : Front: L C R, Side: L R, LFE
Частота : 48,0 КГц
Частота кадров : 31,250 кадров/сек (1536 SPF)
Битовая глубина : 16 бит
Метод сжатия : С потерями
Размер потока : 252 Мбайт (6%)
Заголовок : Dub
Язык : Русский
Service Kind : Complete Main
Default : Да
Forced : Нет

Аудио #2
Идентификатор : 3
Формат : AC-3
Формат/Информация : Audio Coding 3
Идентификатор кодека : A_AC3
Продолжительность : 1 ч. 18 м.
Вид битрейта : Постоянный
Битрейт : 448 Кбит/сек
Каналы : 6 каналов
Расположение каналов : Front: L C R, Side: L R, LFE
Частота : 48,0 КГц
Частота кадров : 31,250 кадров/сек (1536 SPF)
Битовая глубина : 16 бит
Метод сжатия : С потерями
Размер потока : 252 Мбайт (6%)
Заголовок : AVO[А.Дольский]
Язык : Русский
Service Kind : Complete Main
Default : Нет
Forced : Нет

Аудио #3
Идентификатор : 4
Формат : AC-3
Формат/Информация : Audio Coding 3
Идентификатор кодека : A_AC3
Продолжительность : 1 ч. 18 м.
Вид битрейта : Постоянный
Битрейт : 448 Кбит/сек
Каналы : 6 каналов
Расположение каналов : Front: L C R, Side: L R, LFE
Частота : 48,0 КГц
Частота кадров : 31,250 кадров/сек (1536 SPF)
Битовая глубина : 16 бит
Метод сжатия : С потерями
Размер потока : 252 Мбайт (6%)
Язык : Испанский
Service Kind : Complete Main
Default : Нет
Forced : Нет

Текст #1
Идентификатор : 5
Формат : UTF-8
Идентификатор кодека : S_TEXT/UTF8
Идентификатор кодека/Информация : UTF-8 Plain Text
Заголовок : по дубляжу
Язык : Русский
Default : Нет
Forced : Нет

Текст #2
Идентификатор : 6
Формат : UTF-8
Идентификатор кодека : S_TEXT/UTF8
Идентификатор кодека/Информация : UTF-8 Plain Text
Заголовок : альтернативные
Язык : Русский
Default : Нет
Forced : Нет

Текст #3
Идентификатор : 7
Формат : UTF-8
Идентификатор кодека : S_TEXT/UTF8
Идентификатор кодека/Информация : UTF-8 Plain Text
Язык : Английский
Default : Нет
Forced : Нет

Меню
00:00:00.000 : en:The Fire Station
00:07:37.623 : en:Callout
00:11:57.842 : en:The Old Lady's Apartment
00:19:29.877 : en:Keep Filming
00:25:04.460 : en:An Idea
00:30:58.773 : en:Interview the Residents
00:38:47.366 : en:Finally, Some Information
00:45:40.112 : en:Secretly Filming
00:51:25.791 : en:Jennifer?
00:59:51.629 : en:Get Us Out of Here
01:08:41.783 : en:The Penthouse Apartment
01:13:32.908 : en:Switch to Night Vision



Сэмпл
Релиз от:
Аватара пользователя
V_ad
Опытный Релизёр-Корсар
 
 

Награды: 19
За помощь проекту (1) За отличные раздачи и качество (9) Верный Сид (5)
  • Торрент
Для скачивания торрента необходимо зарегистрироваться или войти на трекер.

Вернуться в Зарубежное кино (2001-2010 / HD Video)



Uptime по данным Ping-Admin.Ru - сервиса мониторинга доступности сайтов
Рейтинг@Mail.ru