logo
Международный русскоязычный
торрент-трекер
Menu
Doublon
Поделиться с друзьями: 
Голосуй за Корсар и получи 500 дублонов
Рейтинг торрент трекеров - UpTracker.ru

Рэмпейдж / Rampage (2018, фантастика, боевик, приключения, BDRip 1080p) | 3D-Video | halfOU | Лицензия

Сообщение kisa1980 » 06 июн 2019, 19:57

Название: Рэмпейдж
Оригинальное название: Rampage
Год выпуска: 2018
Страна: США, New Line Cinema, Asap Entertainment, Wrigley Pictures, Flynn Picture Company, 7Bucks Entertainment, Warner Bros. Pictures
Жанр: Фантастика, боевик, приключения
Продолжительность: 01:47:16
Перевод: Профессиональный дублированный (лицензия)
Режиссер: Брэд Пейтон / Brad Peyton
В ролях: Дуэйн Джонсон, Наоми Харрис, Малин Акерман, Джеффри Дин Морган, Джейк Лэси, Джо Манганьелло, Марли Шелтон, П.Дж. Бирн, Деметриус Гросс, Джек Куэйд

Описание: Приматолог Дэвис Окойи предпочитает держаться подальше от людей и дружит с Джорджем, удивительно умным самцом гориллы, которого он воспитывал с самого рождения. Но вышедший из-под контроля генетический эксперимент превращает послушную обезьяну в яростного монстра. Более того, вскоре обнаруживается, что существуют и другие модифицированные хищники. Пока свежесозданные чудовища превращают в руины Северную Америку, стирая с лица Земли все, что попадается у них на пути, Окойи вместе с опальным генным инженером пытается изобрести антидот, прорываясь по бесконечному полю боя не только, чтобы предотвратить глобальную катастрофу, но и спасти бесстрашное существо, которое когда-то было его другом.



Качество: BDRip 1080p
Контейнер: MKV
Формат 3D: Half OverUnder / Вертикальная анаморфная стереопара
Порядок ракурсов: левый ракурс первый
Видео: AVC / 1920х1080p / 23,976 fps / 11.0 Mbps
Аудио:
#1 - Русский / AC3 / 48 KHz / 5.1 ch / 448 Kbps (Дубляж - BD 3D Eur)
#2 - Украинский / AC3 / 48 KHz / 2 ch / 192 Kbps (Дубляж) (cпасибо Hurtom!)
#3 - Английский / AC3 / 48 KHz / 5.1 ch / 640 Kbps (Original - BD 3D)
Субтитры (SRT):
Вшитые (softsub):
#1 - Русские Форсированные (включены по умолчанию)
#2 - Русские Полные
#3 - Украинские Форсированные [Hurtom]
#4 - English Full
#5 - English SDH [BD 3D]
Внешние (UTF-8):
#1 - Русские Форсированные (включены по умолчанию)
#2 - Русские Полные
#3 - Украинские Форсированные [Hurtom]

General
Unique ID : 234879210595027354726452734819511677361 (0xB0B4172B005E50ADB1CCADC3B049B1B1)
Complete name : D:Rampage(2018)3D-halfOU(Ash61)Rampage(2018)3D-halfOU(Ash61).mkv
Format : Matroska
Format version : Version 2
File size : 9.20 GiB
Duration : 1h 47mn
Overall bit rate : 12.3 Mbps
Movie name : Рэмпейдж / Rampage (2018) in 3D
Encoded date : UTC 2018-07-12 21:26:40
Writing application : mkvmerge v5.8.0 ('No Sleep / Pillow') built on Sep 2 2012 15:37:04
Writing library : libebml v1.2.3 + libmatroska v1.3.0

Video
ID : 1
Format : AVC
Format/Info : Advanced Video Codec
Format profile : High@L4.1
Format settings, CABAC : Yes
Format settings, ReFrames : 4 frames
Codec ID : V_MPEG4/ISO/AVC
Duration : 1h 47mn
Bit rate : 11.0 Mbps
Width : 1 920 pixels
Height : 1 080 pixels
Display aspect ratio : 16:9
Frame rate mode : Constant
Frame rate : 23.976 (24000/1001) fps
Color space : YUV
Chroma subsampling : 4:2:0
Bit depth : 8 bits
Scan type : Progressive
Bits/(Pixel*Frame) : 0.221
Stream size : 8.06 GiB (88%)
Title : BDRip by Ash61
Writing library : x264 core 146 r2538 121396c
Encoding settings : cabac=1 / ref=4 / deblock=1:-3:-3 / analyse=0x3:0x113 / me=umh / subme=10 / psy=1 / psy_rd=1.00:0.00 / mixed_ref=1 / me_range=32 / chroma_me=1 / trellis=2 / 8x8dct=1 / cqm=0 / deadzone=21,11 / fast_pskip=0 / chroma_qp_offset=-2 / threads=12 / lookahead_threads=3 / sliced_threads=0 / nr=0 / decimate=0 / interlaced=0 / bluray_compat=0 / constrained_intra=0 / bframes=10 / b_pyramid=2 / b_adapt=2 / b_bias=0 / direct=3 / weightb=1 / open_gop=0 / weightp=2 / keyint=250 / keyint_min=23 / scenecut=40 / intra_refresh=0 / rc_lookahead=60 / rc=2pass / mbtree=0 / bitrate=11000 / ratetol=1.0 / qcomp=0.70 / qpmin=0 / qpmax=69 / qpstep=4 / cplxblur=20.0 / qblur=0.5 / vbv_maxrate=40000 / vbv_bufsize=30000 / nal_hrd=none / filler=0 / frame-packing=4 / ip_ratio=1.40 / pb_ratio=1.30 / aq=1:0.70
Language : English
Default : Yes
Forced : No

Audio #1
ID : 2
Format : AC-3
Format/Info : Audio Coding 3
Mode extension : CM (complete main)
Format settings, Endianness : Big
Codec ID : A_AC3
Duration : 1h 47mn
Bit rate mode : Constant
Bit rate : 448 Kbps
Channel(s) : 6 channels
Channel positions : Front: L C R, Side: L R, LFE
Sampling rate : 48.0 KHz
Frame rate : 31.250 fps (1536 spf)
Compression mode : Lossy
Stream size : 344 MiB (4%)
Title : Дубляж - BD 3D Eur
Language : Russian
Default : Yes
Forced : No

Audio #2
ID : 3
Format : AC-3
Format/Info : Audio Coding 3
Mode extension : CM (complete main)
Format settings, Endianness : Big
Codec ID : A_AC3
Duration : 1h 47mn
Bit rate mode : Constant
Bit rate : 192 Kbps
Channel(s) : 2 channels
Channel positions : Front: L R
Sampling rate : 48.0 KHz
Frame rate : 31.250 fps (1536 spf)
Compression mode : Lossy
Stream size : 147 MiB (2%)
Title : Дубляж
Language : Ukrainian
Default : No
Forced : No

Audio #3
ID : 4
Format : AC-3
Format/Info : Audio Coding 3
Mode extension : CM (complete main)
Format settings, Endianness : Big
Codec ID : A_AC3
Duration : 1h 47mn
Bit rate mode : Constant
Bit rate : 640 Kbps
Channel(s) : 6 channels
Channel positions : Front: L C R, Side: L R, LFE
Sampling rate : 48.0 KHz
Frame rate : 31.250 fps (1536 spf)
Compression mode : Lossy
Stream size : 491 MiB (5%)
Title : Original - BD 3D Eur
Language : English
Default : No
Forced : No

Text #1
ID : 5
Format : UTF-8
Codec ID : S_TEXT/UTF8
Codec ID/Info : UTF-8 Plain Text
Title : Форсированные
Language : Russian
Default : Yes
Forced : No

Text #2
ID : 6
Format : UTF-8
Codec ID : S_TEXT/UTF8
Codec ID/Info : UTF-8 Plain Text
Title : Полные
Language : Russian
Default : No
Forced : No

Text #3
ID : 7
Format : UTF-8
Codec ID : S_TEXT/UTF8
Codec ID/Info : UTF-8 Plain Text
Title : Форсированные [Hurtom]
Language : Ukrainian
Default : No
Forced : No

Text #4
ID : 8
Format : UTF-8
Codec ID : S_TEXT/UTF8
Codec ID/Info : UTF-8 Plain Text
Title : Full
Language : English
Default : No
Forced : No

Text #5
ID : 9
Format : UTF-8
Codec ID : S_TEXT/UTF8
Codec ID/Info : UTF-8 Plain Text
Title : SDH [BD 3D Eur]
Language : English
Default : No
Forced : No

Menu
00:00:00.000 : :1
00:12:58.527 : :2
00:19:56.278 : :3
00:29:53.290 : :4
00:40:35.391 : :5
00:49:10.905 : :6
01:02:38.170 : :7
01:10:37.649 : :8
01:20:10.471 : :9
01:29:23.608 : :10
01:39:43.185 : :11














КУБКИ

СТАЖ

МЕДАЛИ
Награды:102

За активную помощь проекту (12) Лучший по количеству кубков (3) За отличные раздачи и качество (38) За подробное оформление раздач (7) За отличные комментарии (9) Почётный форумчанин (2) Верный Сид (28) За участие в конкурсах/играх (2)

Аватара пользователя
Тортуга
kisa1980
Главный помощник Администратора-Корсар
  • Торрент
Для скачивания торрента необходимо зарегистрироваться или войти на трекер.

Вернуться в Фильмы 3D (3D Video)



Uptime по данным Ping-Admin.Ru - сервиса мониторинга доступности сайтов
Рейтинг@Mail.ru