logo
Международный русскоязычный
торрент-трекер
Menu
"Бунт на корабле", за скачанные торрент-файлы дублоны не снимаются. Возможность оплачена пользователем Сирожа молодец.
Doublon
Поделиться с друзьями: 
Голосуй за Корсар и получи 500 дублонов
Рейтинг торрент трекеров - UpTracker.ru

Рэмбо: Последняя кровь / Rambo: Last Blood (2019, Боевик, триллер, приключения, BDRip 1080p) | Театральная версия | iTunes

Сообщение al1ksandr » 03 дек 2019, 01:00

Название: Рэмбо: Последняя кровь
Оригинальное название: Rambo: Last Blood
Год выхода: 2019
Жанр: Боевик, триллер, приключения
Режиссер: Адриан Грюнберг
В ролях: Сильвестр Сталлоне, Пас Вега, Ивет Монреаль, Луис Мэндилор, Оскар Хаенада, Шила Шах, Серхио Перис-Менчета, Джессика Мэдсен, Хоакин Косио, Адриана Барраса, Джени Ким, Паскасио Лопес, Александр Димитров

О фильме: Он хранил секреты всю жизнь, но пришло время взглянуть в глаза прошлому. В последний раз собраться и стать безжалостной машиной для убийства. Рэмбо снова встанет на смертельно опасный путь — путь мести, который ему придется пройти до конца.



Страна: США, Испания, Болгария
Студия: Balboa Productions, Campbell Grobman Films, Dadi Film Group
Продолжительность: 01:29:28
Перевод: Дублированный | iTunes

Качество: BDRip 1080p
Видео: MPEG-4 AVC, 1920x804, 13.3 Mbit/s, 23.976 fps
Аудио #01: 48 kHz, AC3, 5.1, 384 Kbps | iTunes | RUS |
Аудио #02: 48 kHz, AC3, 5.1, 640 Kbps | Оригинал | ENG |
Субтитры: Нет


General
Unique ID : 316404311469916409648853543639942692079 (0xEE0940F8FDE86A7FDF56BA4051D3FCEF)
Complete name : F:Video111Rambo.Last.Blood.2019.BDRip.1080p.seleZen.mkv
Format : Matroska
Format version : Version 4
File size : 8.97 GiB
Duration : 1 h 29 min
Overall bit rate : 14.4 Mb/s
Movie name : Rambo Last Blood 2019 from селезень
Encoded date : UTC 2019-12-07 15:15:13
Writing application : mkvmerge v40.0.0 ('Old Town Road + Pony') 64-bit
Writing library : libebml v1.3.9 + libmatroska v1.5.2

Video
ID : 1
Format : AVC
Format/Info : Advanced Video Codec
Format profile : High@L4.1
Format settings : CABAC / 4 Ref Frames
Format settings, CABAC : Yes
Format settings, Reference : 4 frames
Codec ID : V_MPEG4/ISO/AVC
Duration : 1 h 29 min
Bit rate : 13.3 Mb/s
Width : 1 920 pixels
Height : 804 pixels
Display aspect ratio : 2.40:1
Frame rate mode : Constant
Frame rate : 23.976 (24000/1001) FPS
Color space : YUV
Chroma subsampling : 4:2:0
Bit depth : 8 bits
Scan type : Progressive
Bits/(Pixel*Frame) : 0.360
Stream size : 8.33 GiB (93%)
Title : CHD
Writing library : x264 core 157 r2867+150 7e91e0e t_mod_Custom_2 [8-bit@all X86_64]
Encoding settings : cabac=1 / ref=4 / deblock=1:-3:-3 / analyse=0x3:0x133 / me=umh / subme=11 / psy=1 / fade_compensate=0.00 / psy_rd=0.90:0.10 / mixed_ref=1 / me_range=64 / chroma_me=1 / trellis=2 / 8x8dct=1 / cqm=0 / deadzone=21,11 / fast_pskip=0 / chroma_qp_offset=-4 / threads=25 / lookahead_threads=4 / sliced_threads=0 / nr=0 / decimate=1 / interlaced=0 / bluray_compat=0 / constrained_intra=0 / fgo=0 / bframes=8 / b_pyramid=2 / b_adapt=2 / b_bias=0 / direct=3 / weightb=1 / open_gop=0 / weightp=2 / keyint=250 / keyint_min=23 / scenecut=40 / intra_refresh=0 / rc_lookahead=60 / rc=crf / mbtree=0 / crf=18.0000 / qcomp=0.70 / qpmin=0:0:0 / qpmax=69:69:69 / qpstep=4 / vbv_maxrate=35000 / vbv_bufsize=35000 / crf_max=0.0 / nal_hrd=none / filler=0 / ip_ratio=1.40 / pb_ratio=1.30 / aq=3:1.00 / aq-sensitivity=10.00 / aq-factor=1.00:1.00:1.00 / aq2=0 / aq3=0
Language : English
Default : Yes
Forced : No

Audio #1
ID : 2
Format : AC-3
Format/Info : Audio Coding 3
Commercial name : Dolby Digital
Codec ID : A_AC3
Duration : 1 h 29 min
Bit rate mode : Constant
Bit rate : 384 kb/s
Channel(s) : 6 channels
Channel layout : L R C LFE Ls Rs
Sampling rate : 48.0 kHz
Frame rate : 31.250 FPS (1536 SPF)
Bit depth : 16 bits
Compression mode : Lossy
Stream size : 246 MiB (3%)
Title : iTunes
Language : Russian
Service kind : Complete Main
Default : Yes
Forced : Yes

Audio #2
ID : 3
Format : AC-3
Format/Info : Audio Coding 3
Commercial name : Dolby Digital
Codec ID : A_AC3
Duration : 1 h 29 min
Bit rate mode : Constant
Bit rate : 640 kb/s
Channel(s) : 6 channels
Channel layout : L R C LFE Ls Rs
Sampling rate : 48.0 kHz
Frame rate : 31.250 FPS (1536 SPF)
Bit depth : 16 bits
Compression mode : Lossy
Stream size : 410 MiB (4%)
Title : Original
Language : English
Service kind : Complete Main
Default : No
Forced : No

Menu
00:00:00.000 : en:绗?01 绔?
00:04:50.081 : en:绗?02 绔?
00:10:59.158 : en:绗?03 绔?
00:14:35.791 : en:绗?04 绔?
00:22:39.024 : en:绗?05 绔?
00:25:11.718 : en:绗?06 绔?
00:31:24.382 : en:绗?07 绔?
00:36:12.253 : en:绗?08 绔?
00:41:08.299 : en:绗?09 绔?
00:46:37.878 : en:绗?10 绔?
00:49:29.967 : en:绗?11 绔?
00:55:04.926 : en:绗?12 绔?
01:00:08.229 : en:绗?13 绔?
01:05:57.495 : en:绗?14 绔?
01:12:06.280 : en:绗?15 绔?
01:17:47.287 : en:绗?16 绔?


Релиз от:
Последний раз редактировалось kisa1980 10 дек 2019, 19:04, всего редактировалось 2 раз(а).
Причина: Поглощённый торрент
КУБКИ

СТАЖ

МЕДАЛИ
Награды:70

За активную помощь проекту (3) Лучший по количеству кубков (15) За отличные раздачи и качество (6) За отличные комментарии (13) Почётный форумчанин (28) Верный Сид (1) За участие в конкурсах/играх (2)

Аватара пользователя
СССР
al1ksandr
Помощник Администратора-Корсар
  • Торрент
Для скачивания торрента необходимо зарегистрироваться или войти на трекер.

Сообщение Ursanu » 04 дек 2019, 00:03

:hi: :hi: :hi: :respect: :respect: :respect:
СТАЖ

МЕДАЛИ
Награды:1

Почётный форумчанин (1)

Аватара пользователя
Ukraine
Ursanu
Опытный Корсар

Сообщение al1ksandr » 07 дек 2019, 20:29

Замена WEB-DL 1080p на BDRip 1080p.
КУБКИ

СТАЖ

МЕДАЛИ
Награды:70

За активную помощь проекту (3) Лучший по количеству кубков (15) За отличные раздачи и качество (6) За отличные комментарии (13) Почётный форумчанин (28) Верный Сид (1) За участие в конкурсах/играх (2)

Аватара пользователя
СССР
al1ksandr
Помощник Администратора-Корсар


Вернуться в Зарубежное кино (2011-2019 / HD Video)



Uptime по данным Ping-Admin.Ru - сервиса мониторинга доступности сайтов
Рейтинг@Mail.ru