logo
Международный русскоязычный
торрент-трекер

Магазин-KorsaRDoublon

Поделиться с друзьями: 
Голосуй и получи дублоны
Рейтинг торрент трекеров - UpTracker.ru

Red Hot Chili Peppers - (1995-2016, Alternative Rock, Funk Rock) FLAC

Сообщение Korsar » 11 янв 2017, 23:16



Жанр: Alternative Rock, Funk Rock
Год выпуска: 1995-2016
Аудио кодек: FLAC
Тип рипа: image+.cue
Формат записи: 16/44
Формат раздачи: 16/44
Продолжительность: 07:52:15

Исходник для обработки: ; ; ; ; ;
Обработка: Устранение клиппинга, восстановление динамического диапазона.


Studio albums
01. Warped (5:05)
02. Aeroplane (4:45)
03. Deep Kick (6:34)
04. My Friends (4:03)
05. Coffee Shop (3:09)
06. Pea (1:47)
07. One Big Mob (6:02)
08. Walkabout (5:07)
09. Tearjerker (4:20)
10. One Hot Minute (6:24)
11. Falling Into Grace (3:48)
12. Shallow Be Thy Game (4:34)
13. Transcending (5:50)
14. Melancholy Mechanics [Japan bonus track] (4:29)
Исходное издание: Warner Bros. Records – WPCR-10023
Обработка: Проведены деклиппинг и декомпрессия материала. Эквализированы частоты 1,5-4 кГц.
Примечание: Мастеринг с "косым" клиппингом, который встречается "на глубине" до -15 дБ. Насколько возможно, клиппинг и искажения были почищены, но полного удаления артефактов добиться не удалось.
АЧХ до обработки - красного цвета, после обработки - зеленого.Код:
Код: Выделить всё
foobar2000 1.3.9 / Замер динамического диапазона (DR) 1.1.1
Дата отчёта: 2016-09-22 12:56:47

--------------------------------------------------------------------------------
Анализ:   Red Hot Chili Peppers / One Hot Minute
--------------------------------------------------------------------------------

DR         Пики          RMS        Продолжительность трека
--------------------------------------------------------------------------------
DR11      -0.60 дБ   -14.48 дБ      5:05 1-Warped
DR12      -0.50 дБ   -15.35 дБ      4:45 2-Aeroplane
DR11      -0.90 дБ   -15.25 дБ      6:34 3-Deep Kick
DR11      -1.30 дБ   -15.19 дБ      4:03 4-My Friends
DR11      -0.78 дБ   -13.26 дБ      3:09 5-Coffee Shop
DR12      -5.39 дБ   -19.96 дБ      1:47 6-Pea
DR11      -0.56 дБ   -14.29 дБ      6:02 7-One Big Mob
DR13      -0.79 дБ   -16.51 дБ      5:07 8-Walkabout
DR11      -0.93 дБ   -15.55 дБ      4:20 9-Tearjerker
DR13      -0.70 дБ   -14.58 дБ      6:24 10-One Hot Minute
DR13      -0.80 дБ   -15.37 дБ      3:48 11-Falling Into Grace
DR11      -0.64 дБ   -12.93 дБ      4:34 12-Shallow Be Thy Game
DR12      -1.09 дБ   -14.15 дБ      5:50 13-Transcending
DR14      -1.32 дБ   -19.53 дБ      4:29 14-Melancholy Mechanics [Japan bonus track]
--------------------------------------------------------------------------------

Количество треков: 14
Реальные значения DR: DR12

Частота:  44100 Гц
Каналов:  2
Разрядность:   16
Битрейт:  833 кбит/с
Кодек:   FLAC

#77701. Around the World (3:59)
02. Parallel Universe (4:30)
03. Scar Tissue (3:37)
04. Otherside (4:15)
05. Get on Top (3:19)
06. Californication (5:22)
07. Easily (3:51)
08. Porcelain (2:44)
09. Emit Remmus (4:01)
10. I Like Dirt (2:38)
11. This Velvet Glove (3:45)
12. Savior (4:53)
13. Purple Stain (4:14)
14. Right on Time (1:53)
15. Road Trippin' (3:26)
16. Gong Li [non LP track] (3:44)
17. How Strong [non LP track] (4:44)
18. Instrumental #2 [non LP track] (2:35)
Исходное издание: Warner Bros. Records – 9362474872
Обработка: Проведены деклиппинг и декомпрессия материала. Эквализированы частоты 1,2-6,5 кГц.
Примечание: Несмотря на то, что мастеринг данного альбома не обсуждал только ленивый, он не является худшим в дискографии коллектива. Все претензии к звучанию заключались в крайне высоком уровне клиппинга, который очень хорошо заметен. В последующих альбомах к клиппингу применялись различные обработки, искажающие его до неузнаваемости (при этом появлялись искажения другого рода).
АЧХ до обработки - красного цвета, после обработки - зеленого.Код:
Код: Выделить всё
foobar2000 1.3.9 / Замер динамического диапазона (DR) 1.1.1
Дата отчёта: 2016-09-22 12:30:58

--------------------------------------------------------------------------------
Анализ:   Red Hot Chili Peppers / Californication
--------------------------------------------------------------------------------

DR         Пики          RMS        Продолжительность трека
--------------------------------------------------------------------------------
DR11      -1.59 дБ   -14.34 дБ      3:59 1-Around the World
DR11      -0.77 дБ   -13.47 дБ      4:30 2-Parallel Universe
DR10      -1.91 дБ   -13.53 дБ      3:37 3-Scar Tissue
DR11      -0.79 дБ   -13.17 дБ      4:15 4-Otherside
DR10      -1.49 дБ   -12.90 дБ      3:19 5-Get on Top
DR10      -0.49 дБ   -13.30 дБ      5:22 6-Californication
DR10      -0.83 дБ   -13.31 дБ      3:51 7-Easily
DR11      -2.98 дБ   -15.29 дБ      2:44 8-Porcelain
DR10      -2.65 дБ   -14.25 дБ      4:01 9-Emit Remmus
DR12      -0.62 дБ   -13.89 дБ      2:38 10-I Like Dirt
DR11      -1.42 дБ   -15.04 дБ      3:45 11-This Velvet Glove
DR10      -2.00 дБ   -13.67 дБ      4:53 12-Savior
DR11      -2.06 дБ   -14.32 дБ      4:14 13-Purple Stain
DR11      -1.23 дБ   -13.74 дБ      1:53 14-Right on Time
DR9       -4.27 дБ   -15.10 дБ      3:26 15-Road Trippin'
DR11      -0.59 дБ   -14.48 дБ      3:44 16-Gong Li [non LP track]
DR11      -0.51 дБ   -12.17 дБ      4:44 17-How Strong [non LP track]
DR11      -0.62 дБ   -12.84 дБ      2:35 18-Instrumental #2 [non LP track]
--------------------------------------------------------------------------------

Количество треков: 18
Реальные значения DR: DR11

Частота:  44100 Гц
Каналов:  2
Разрядность:   16
Битрейт:  840 кбит/с
Кодек:   FLAC

#77701. By the Way (3:38)
02. Universally Speaking (4:19)
03. This is the Place (4:18)
04. Dosed (5:12)
05. Don't Forget Me (4:38)
06. The Zephyr Song (3:53)
07. Can't Stop (4:29)
08. I Could Die For You (3:14)
09. Midnight (4:56)
10. Throw Away Your Television (3:45)
11. Cabron (3:38)
12. Tear (5:17)
13. On Mercury (3:28)
14. Minor Thing (3:38)
15. Warm Tape (4:17)
16. Venice Queen (6:08)
17. Time [Japan bonus track] (3:47)
Исходное издание: Warner Bros. Records – WPCR-12313
Обработка: Проведены деклиппинг и декомпрессия материала. Эквализированы частоты в районе 100 Гц и 2 кГц. Произведена небольшая реставрация ВЧ-составляющей, немного почищен "хрип" в проблемных участках.
Примечание: На мой взгляд, худший мастеринг у "Перцев". Изначально, материал был такой же клиппированный, как и в Californication, а затем обработан различными инструментами, и искажен. В результате, получилась каша из классического клиппинга "полочкой", наклонного клиппинга и щедро разбросанного лимитирования.
АЧХ до обработки - красного цвета, после обработки - зеленого.Код:
Код: Выделить всё
foobar2000 1.3.9 / Замер динамического диапазона (DR) 1.1.1
Дата отчёта: 2016-09-22 14:35:22

--------------------------------------------------------------------------------
Анализ:   Red Hot Chili Peppers / By the Way
--------------------------------------------------------------------------------

DR         Пики          RMS        Продолжительность трека
--------------------------------------------------------------------------------
DR10      -1.32 дБ   -13.79 дБ      3:38 1-By the Way
DR10      -1.18 дБ   -12.64 дБ      4:19 2-Universally Speaking
DR10      -0.81 дБ   -12.64 дБ      4:18 3-This is the Place
DR10      -1.08 дБ   -12.72 дБ      5:12 4-Dosed
DR9       -1.33 дБ   -13.57 дБ      4:38 5-Don't Forget Me
DR11      -1.06 дБ   -13.21 дБ      3:53 6-The Zephyr Song
DR11      -0.88 дБ   -13.20 дБ      4:29 7-Can't Stop
DR11      -0.60 дБ   -14.33 дБ      3:14 8-I Could Die For You
DR10      -1.36 дБ   -14.25 дБ      4:56 9-Midnight
DR10      -1.03 дБ   -12.54 дБ      3:45 10-Throw Away Your Television
DR10      -0.77 дБ   -12.77 дБ      3:38 11-Cabron
DR10      -1.60 дБ   -14.20 дБ      5:17 12-Tear
DR10      -1.43 дБ   -13.26 дБ      3:28 13-On Mercury
DR10      -1.15 дБ   -12.49 дБ      3:38 14-Minor Thing
DR10      -1.27 дБ   -12.71 дБ      4:17 15-Warm Tape
DR10      -0.72 дБ   -12.22 дБ      6:08 16-Venice Queen
DR10      -0.51 дБ   -14.08 дБ      3:47 17-Time [Japan bonus track]
--------------------------------------------------------------------------------

Количество треков: 17
Реальные значения DR: DR10

Частота:  44100 Гц
Каналов:  2
Разрядность:   16
Битрейт:  913 кбит/с
Кодек:   FLAC

#77701. Dani California (4:42)
02. Snow (Hey Oh) (5:35)
03. Charlie (4:38)
04. Stadium Arcadium (5:16)
05. Hump de Bump (3:33)
06. She's Only 18 (3:25)
07. Slow Cheetah (5:20)
08. Torture Me (3:45)
09. Strip My Mind (4:19)
10. Especially in Michigan (4:01)
11. Warlocks (3:26)
12. C'mon Girl (3:49)
13. Wet Sand (5:10)
14. Hey (5:40)
15. Desecration Smile (5:02)
16. Tell Me Baby (4:08)
17. Hard to Concentrate (4:02)
18. 21st Century (4:22)
19. She Looks to Me (4:06)
20. Readymade (4:31)
21. If (2:53)
22. Make You Feel Better (3:52)
23. Animal Bar (5:25)
24. So Much I (3:45)
25. Storm in a Teacup (3:45)
26. We Believe (3:36)
27. Turn it Again (6:06)
28. Death of a Martian (4:25)
Исходное издание: Warner Bros. Records – WPCR-12300~1
Обработка: Проведены деклиппинг и декомпрессия материала.
Примечание: В противоположность альбому "By the Way", наименее изгаженный альбом. В студии ограничились только клиппингом, без его искажения и лимитирования.
АЧХ до обработки - красного цвета, после обработки - зеленого.Код:
Код: Выделить всё
foobar2000 1.3.9 / Замер динамического диапазона (DR) 1.1.1
Дата отчёта: 2016-09-22 14:45:10

--------------------------------------------------------------------------------
Анализ:   Red Hot Chili Peppers / Stadium Arcadium
--------------------------------------------------------------------------------

DR         Пики          RMS        Продолжительность трека
--------------------------------------------------------------------------------
DR11      -0.51 дБ   -13.42 дБ      4:42 1-Dani California
DR11      -0.58 дБ   -12.53 дБ      5:35 2-Snow (Hey Oh)
DR11      -0.86 дБ   -14.81 дБ      4:38 3-Charlie
DR11      -1.11 дБ   -14.79 дБ      5:16 4-Stadium Arcadium
DR11      -0.69 дБ   -14.29 дБ      3:33 5-Hump de Bump
DR11      -0.90 дБ   -13.75 дБ      3:25 6-She's Only 18
DR12      -0.58 дБ   -16.39 дБ      5:20 7-Slow Cheetah
DR11      -0.50 дБ   -13.73 дБ      3:45 8-Torture Me
DR12      -0.71 дБ   -15.66 дБ      4:19 9-Strip My Mind
DR12      -0.72 дБ   -14.61 дБ      4:01 10-Especially in Michigan
DR12      -0.49 дБ   -14.47 дБ      3:26 11-Warlocks
DR11      -0.89 дБ   -14.73 дБ      3:49 12-C'mon Girl
DR11      -1.20 дБ   -15.32 дБ      5:10 13-Wet Sand
DR13      -0.68 дБ   -15.19 дБ      5:40 14-Hey
DR11      -1.00 дБ   -14.48 дБ      5:02 15-Desecration Smile
DR12      -0.59 дБ   -14.49 дБ      4:08 16-Tell Me Baby
DR12      -0.92 дБ   -15.53 дБ      4:02 17-Hard to Concentrate
DR11      -0.59 дБ   -14.74 дБ      4:22 18-21st Century
DR11      -0.86 дБ   -14.13 дБ      4:06 19-She Looks to Me
DR11      -0.70 дБ   -13.10 дБ      4:31 20-Readymade
DR11      -6.37 дБ   -20.44 дБ      2:53 21-If
DR11      -0.79 дБ   -14.31 дБ      3:52 22-Make You Feel Better
DR10      -0.73 дБ   -13.74 дБ      5:25 23-Animal Bar
DR11      -0.58 дБ   -13.25 дБ      3:45 24-So Much I
DR10      -0.69 дБ   -14.07 дБ      3:45 25-Storm in a Teacup
DR11      -0.50 дБ   -15.17 дБ      3:36 26-We Believe
DR12      -0.60 дБ   -14.17 дБ      6:06 27-Turn it Again
DR12      -0.52 дБ   -13.87 дБ      4:25 28-Death of a Martian
--------------------------------------------------------------------------------

Количество треков: 28
Реальные значения DR: DR11

Частота:  44100 Гц
Каналов:  2
Разрядность:   16
Битрейт:  872 кбит/с
Кодек:   FLAC

#77701. Monarchy of Roses (4:12)
02. Factory of Faith (4:22)
03. Brendan's Death Song (5:40)
04. Ethiopia (3:51)
05. Annie Wants a Baby (3:41)
06. Look Around (3:28)
07. The Adventures of Rain Dance Maggie (4:43)
08. Did I Let You Know (4:22)
09. Goodbye Hooray (3:53)
10. Happiness Loves Company (3:33)
11. Police Station (5:36)
12. Even You Brutus? (4:01)
13. Meet Me at the Corner (4:22)
14. Dance, Dance, Dance (3:46)
15. Strange Man [bonus track] (3:39)
16. Long Progression [bonus track] (4:00)
17. Magpies on Fire [bonus track] (3:45)
18. Victorian Machinery [bonus track] (4:07)
19. Never is a Long Time [bonus track] (2:47)
20. Love of Your Life [bonus track] (4:05)
21. The Sunset Sleeps [bonus track] (4:00)
22. Hometown Gypsy [bonus track] (3:58)
Исходное издание: Warner Bros. Records – 9362494550
Обработка: Проведены деклиппинг и декомпрессия материала.
Примечание: Те же "прелести", что и в других альбомах: классический и "наклонный" клиппинг, который встречается "на глубине" до -12 дБ, искажение клиппинга, лимитирование.
АЧХ до обработки - красного цвета, после обработки - зеленого.Код:
Код: Выделить всё
foobar2000 1.3.9 / Замер динамического диапазона (DR) 1.1.1
Дата отчёта: 2016-09-22 14:51:09

--------------------------------------------------------------------------------
Анализ:   Red Hot Chili Peppers / I'm With You
--------------------------------------------------------------------------------

DR         Пики          RMS        Продолжительность трека
--------------------------------------------------------------------------------
DR11      -0.66 дБ   -13.26 дБ      4:12 1-Monarchy of Roses
DR11      -0.74 дБ   -13.71 дБ      4:22 2-Factory of Faith
DR11      -0.50 дБ   -14.17 дБ      5:40 3-Brendan's Death Song
DR11      -0.85 дБ   -14.28 дБ      3:51 4-Ethiopia
DR11      -0.50 дБ   -12.76 дБ      3:41 5-Annie Wants a Baby
DR10      -0.52 дБ   -12.67 дБ      3:28 6-Look Around
DR10      -0.77 дБ   -13.41 дБ      4:43 7-The Adventures of Rain Dance Maggie
DR13      -0.60 дБ   -14.43 дБ      4:22 8-Did I Let You Know
DR11      -0.79 дБ   -13.44 дБ      3:53 9-Goodbye Hooray
DR12      -0.76 дБ   -13.42 дБ      3:33 10-Happiness Loves Company
DR11      -0.98 дБ   -14.38 дБ      5:36 11-Police Station
DR11      -0.70 дБ   -14.08 дБ      4:01 12-Even You Brutus?
DR10      -0.71 дБ   -14.12 дБ      4:22 13-Meet Me at the Corner
DR9       -0.49 дБ   -11.73 дБ      3:46 14-Dance, Dance, Dance
DR11      -1.30 дБ   -13.46 дБ      3:39 15-Strange Man [bonus track]
DR11      -0.98 дБ   -13.22 дБ      4:00 16-Long Progression [bonus track]
DR10      -0.70 дБ   -12.59 дБ      3:45 17-Magpies on Fire [bonus track]
DR10      -0.96 дБ   -12.59 дБ      4:07 18-Victorian Machinery [bonus track]
DR10      -0.96 дБ   -13.06 дБ      2:47 19-Never is a Long Time [bonus track]
DR10      -0.67 дБ   -13.13 дБ      4:05 20-Love of Your Life [bonus track]
DR11      -0.52 дБ   -14.48 дБ      4:00 21-The Sunset Sleeps [bonus track]
DR11      -1.07 дБ   -14.31 дБ      3:58 22-Hometown Gypsy [bonus track]
--------------------------------------------------------------------------------

Количество треков: 22
Реальные значения DR: DR11

Частота:  44100 Гц
Каналов:  2
Разрядность:   16
Битрейт:  855 кбит/с
Кодек:   FLAC

#77701. The Getaway (4:10)
02. Dark Necessities (5:02)
03. We Turn Red (3:20)
04. The Longest Wave (3:32)
05. Goodbye Angels (4:29)
06. Sick Love (3:41)
07. Go Robot (4:24)
08. Feasting on the Flowers (3:23)
09. Detroit (3:47)
10. This Ticonderoga (3:35)
11. Encore (4:15)
12. The Hunter (4:00)
13. Dreams of a Samurai (6:09)
Исходное издание: Warner Bros. Records – 9362-49201-5
Обработка: Проведены деклиппинг и декомпрессия материала. Произведена эквализация 40-70 Гц и 11-17 кГц.
Примечание: Мастеринг по новым "стандартам" звучания. К клиппингу прибавлено сильное лимитирование и подчеркивание ряда частот (чтобы "качало" на мобильной аппаратуре).
АЧХ до обработки - красного цвета, после обработки - зеленого.Код:
Код: Выделить всё
foobar2000 1.3.9 / Замер динамического диапазона (DR) 1.1.1
Дата отчёта: 2016-09-22 15:00:34

--------------------------------------------------------------------------------
Анализ:   Red Hot Chili Peppers / The Getaway
--------------------------------------------------------------------------------

DR         Пики          RMS        Продолжительность трека
--------------------------------------------------------------------------------
DR11       0.00 дБ   -12.27 дБ      4:10 1-The Getaway
DR11      -0.52 дБ   -13.67 дБ      5:02 2-Dark Necessities
DR10      -0.80 дБ   -11.82 дБ      3:20 3-We Turn Red
DR10      -0.61 дБ   -13.61 дБ      3:32 4-The Longest Wave
DR10      -0.67 дБ   -13.75 дБ      4:29 5-Goodbye Angels
DR10      -0.76 дБ   -12.31 дБ      3:41 6-Sick Love
DR11      -0.96 дБ   -13.44 дБ      4:24 7-Go Robot
DR10      -1.11 дБ   -13.04 дБ      3:23 8-Feasting on the Flowers
DR11      -0.68 дБ   -12.78 дБ      3:47 9-Detroit
DR10      -0.98 дБ   -12.97 дБ      3:35 10-This Ticonderoga
DR9       -0.65 дБ   -11.91 дБ      4:15 11-Encore
DR9       -1.68 дБ   -13.61 дБ      4:00 12-The Hunter
DR10      -0.58 дБ   -14.09 дБ      6:09 13-Dreams of a Samurai
--------------------------------------------------------------------------------

Количество треков: 13
Реальные значения DR: DR10

Частота:  44100 Гц
Каналов:  2
Разрядность:   16
Битрейт:  775 кбит/с
Кодек:   FLAC

Обработка: Adobe Audition с плагинами Perfect Declipper, Acon Digital DeClip, Fabfilter Pro-L, Fabfilter Pro-MB, Fabfilter Pro-Q2, Natural Dynamics, Flux:: Pure DCompressor, Zunaptiq Unchirp, Izotope De-crackle.

Мониторинг результата:
Стационарная аппаратура: NAD D 1050 + Beyerdynamic DT 990 Pro и Rotel RA-10 + Jamo C603
Мобильная аппаратура: Meizu MX2 + Sennheiser CX 980

Примечание: Деклиппинг и восстановление динамического диапазона - не панацея от некачественной записи. Целью реставрации является меньшая усталость при прослушивании, и звучание, приближенное к тому, которое задумывалось звукорежиссером, до вмешательства маркетологов.

Материалы по теме "Война громкости": 1, 2, 3
Аватара пользователя
Korsar
Помощник Администратора-Корсар
 
Месяцев на трекере: 7Месяцев на трекере: 7Месяцев на трекере: 7Месяцев на трекере: 7Месяцев на трекере: 7Месяцев на трекере: 7Месяцев на трекере: 7
 
Зарегистрирован: 15 авг 2016, 17:15
В кошельке: 53,278.00
Банк: 0.00
Откуда: CCCР
Флаги:
СССР

Награды: 2
За отличные раздачи (1) Верный Сид (1)
  • Торрент
Автор: Korsar Хэш: ---
Добавлен: 11 янв 2017, 23:16 Приватный: Нет (DHT включён)
Статус: Проверен
Размер: 2.83 ГБ (3 037 009 869 байт)
Изменил: Korsar (11 янв 2017, 23:18)
Скачали: 0 (Раздающих: 0%)
Причина:
---
Здоровье: 0%
Сидеров: 0 Личеров: 0
Скорость раздачи: 0 байт/сек Скорость скачивания: 0 байт/сек
Последний сидер: Нет Последний личер: Нет
Для скачивания торрента необходимо зарегистрироваться или войти на трекер.

Вернуться в Alternative & Nu-Metal

На Korsar.tv нет рекламы, для доступа ко всем возможностям отключите блокировщики рекламы!!!
проверить сайт