logo
Международный русскоязычный
торрент-трекер
Menu
"Бунт на корабле", за скачанные торрент-файлы дублоны не снимаются. Возможность оплачена пользователем filbi1976.
Doublon
Поделиться с друзьями: 
Голосуй за Корсар и получи 500 дублонов
Рейтинг торрент трекеров - UpTracker.ru

Рататуй / Ratatouille (2007, Мультфильм, фэнтези, комедия, семейный, анимация, полнометражный, UHD BDRemux 2160p) | HDR | Лицензия

Сообщение al1ksandr » 10 сен 2019, 21:34

Название: Рататуй
Оригинальное название: Ratatouille
Год выхода: 2007
Жанр: Мультфильм, фэнтези, комедия, семейный, анимация, полнометражный
Режиссер: Брэд Берд
В ролях: Пэттон Освальт, Иэн Холм, Лу Романо, Лингвини Брайан Деннехи, Питер О`Тул, Брэд Гэррет, Джанин Гарофало, Уилл Арнетт, Джеймс Римар, Тедди Ньютон, Джулиус Каллахан, Джейк Стайнфелд, Томас Келлер

О фильме: Если ты всего лишь маленький крысеныш - тебе не положено мечтать о "кренделях небесных"! Твой удел жить по законам крысиного племени и питаться отбросами! Если ты всего лишь бестолковый мальчишка, чудом оказавшийся на кухне французского ресторана - твоя задача не болтаться под ногами и постараться производить как можно меньше "отбросов"! Один может, но не должен, другой и хотел бы, да не знает как... И только доверившись друг другу, они смогут приготовить самое лучшее в мире блюдо - настоящую дружбу!



Страна: США
Студия: Pixar Animation Studios, Walt Disney Pictures
Продолжительность: 01:51:05
Перевод: Дублированный | Лицензия

Качество: BDRemux 2160p
Видео: 3840x2160 at 23.976 fps, MPEG-H HEVC HDR Video, 43400 kbps avg
Аудио #01: 48 kHz, AC3, 5.1, 640 Kbps | Лицензия | RUS |
Аудио #02: 48 kHz, TrueHD, 5.1, 7350 Kbps | Оригинал | ENG |
Аудио #03: 48 kHz, AC3, 5.1, 640 Kbps | Оригинал | ENG |
Субтитры: Русские (Forced, full), английские


General
Unique ID : 104939099990225145548308970738306832919 (0x4EF2891694F5DB3BECC7CB0DBA74DA17)
Complete name : D:Video111Ratatouille.2007.BDREMUX.2160p.HDR.seleZen.mkv
Format : Matroska
Format version : Version 4
File size : 40.4 GiB
Duration : 1 h 51 min
Overall bit rate mode : Variable
Overall bit rate : 52.1 Mb/s
Movie name : Ratatouille 2007 from селезень
Encoded date : UTC 2019-09-10 17:29:41
Writing application : mkvmerge v22.0.0 ('At The End Of The World') 64-bit
Writing library : libebml v1.3.5 + libmatroska v1.4.8

Video
ID : 1
Format : HEVC
Format/Info : High Efficiency Video Coding
Format profile : Main 10@L5.1@High
HDR format : SMPTE ST 2086, HDR10 compatible
Codec ID : V_MPEGH/ISO/HEVC
Duration : 1 h 51 min
Bit rate : 43.4 Mb/s
Width : 3 840 pixels
Height : 2 160 pixels
Display aspect ratio : 16:9
Frame rate mode : Constant
Frame rate : 23.976 (24000/1001) FPS
Color space : YUV
Chroma subsampling : 4:2:0 (Type 2)
Bit depth : 10 bits
Bits/(Pixel*Frame) : 0.218
Stream size : 33.7 GiB (83%)
Writing library : ATEME Titan File 3.9.0 (4.9.0.0)
Language : English
Default : Yes
Forced : No
Color range : Limited
Color primaries : BT.2020
Transfer characteristics : PQ
Matrix coefficients : BT.2020 non-constant
Mastering display color pri : Display P3
Mastering display luminance : min: 0.0000 cd/m2, max: 1000 cd/m2

Audio #1
ID : 2
Format : AC-3
Format/Info : Audio Coding 3
Commercial name : Dolby Digital
Codec ID : A_AC3
Duration : 1 h 50 min
Bit rate mode : Constant
Bit rate : 640 kb/s
Channel(s) : 6 channels
Channel layout : L R C LFE Ls Rs
Sampling rate : 48.0 kHz
Frame rate : 31.250 FPS (1536 SPF)
Bit depth : 16 bits
Compression mode : Lossy
Stream size : 506 MiB (1%)
Title : Dub [License]
Language : Russian
Service kind : Complete Main
Default : Yes
Forced : Yes

Audio #2
ID : 3
Format : MLP FBA 16-ch
Format/Info : Meridian Lossless Packing FBA with 16-channel presentation
Commercial name : Dolby TrueHD with Dolby Atmos
Codec ID : A_TRUEHD
Duration : 1 h 51 min
Bit rate mode : Variable
Bit rate : 7 350 kb/s
Maximum bit rate : 6 972 kb/s
Channel(s) : 8 channels
Channel layout : L R C LFE Ls Rs Lb Rb
Sampling rate : 48.0 kHz
Frame rate : 1 200.000 FPS (40 SPF)
Compression mode : Lossless
Stream size : 5.70 GiB (14%)
Title : Original
Language : English
Default : No
Forced : No
Number of dynamic objects : 13
Bed channel count : 1 channel
Bed channel configuration : LFE

Audio #3
ID : 4
Format : AC-3
Format/Info : Audio Coding 3
Commercial name : Dolby Digital
Codec ID : A_AC3
Duration : 1 h 51 min
Bit rate mode : Constant
Bit rate : 640 kb/s
Channel(s) : 6 channels
Channel layout : L R C LFE Ls Rs
Sampling rate : 48.0 kHz
Frame rate : 31.250 FPS (1536 SPF)
Bit depth : 16 bits
Compression mode : Lossy
Stream size : 509 MiB (1%)
Language : English
Service kind : Complete Main
Default : No
Forced : No

Text #1
ID : 5
Format : UTF-8
Codec ID : S_TEXT/UTF8
Codec ID/Info : UTF-8 Plain Text
Duration : 1 h 42 min
Bit rate : 2 b/s
Count of elements : 40
Stream size : 1.88 KiB (0%)
Title : Forced
Language : Russian
Default : Yes
Forced : Yes

Text #2
ID : 6
Format : UTF-8
Codec ID : S_TEXT/UTF8
Codec ID/Info : UTF-8 Plain Text
Duration : 1 h 42 min
Bit rate : 105 b/s
Count of elements : 1338
Stream size : 79.1 KiB (0%)
Title : Full
Language : Russian
Default : No
Forced : No

Text #3
ID : 7
Format : UTF-8
Codec ID : S_TEXT/UTF8
Codec ID/Info : UTF-8 Plain Text
Duration : 1 h 42 min
Bit rate : 66 b/s
Count of elements : 1301
Stream size : 49.7 KiB (0%)
Title : Full
Language : English
Default : No
Forced : No

Text #4
ID : 8
Format : UTF-8
Codec ID : S_TEXT/UTF8
Codec ID/Info : UTF-8 Plain Text
Duration : 1 h 42 min
Bit rate : 72 b/s
Count of elements : 1599
Stream size : 54.1 KiB (0%)
Title : SDH
Language : English
Default : No
Forced : No

Menu
00:00:00.000 : en:00:00:00.000
00:01:17.035 : en:00:01:17.035
00:06:30.265 : en:00:06:30.265
00:09:23.730 : en:00:09:23.730
00:10:58.908 : en:00:10:58.908
00:13:31.811 : en:00:13:31.811
00:17:40.851 : en:00:17:40.851
00:19:38.385 : en:00:19:38.385
00:24:49.154 : en:00:24:49.154
00:28:56.068 : en:00:28:56.068
00:33:05.900 : en:00:33:05.900
00:38:14.250 : en:00:38:14.250
00:40:33.973 : en:00:40:33.973
00:44:12.066 : en:00:44:12.066
00:47:00.151 : en:00:47:00.151
00:51:28.502 : en:00:51:28.502
00:57:03.003 : en:00:57:03.003
00:59:33.153 : en:00:59:33.153
01:00:54.359 : en:01:00:54.359
01:07:20.578 : en:01:07:20.578
01:11:26.490 : en:01:11:26.490
01:15:29.066 : en:01:15:29.066
01:19:25.928 : en:01:19:25.928
01:23:30.964 : en:01:23:30.964
01:25:35.297 : en:01:25:35.297
01:28:19.169 : en:01:28:19.169
01:32:39.846 : en:01:32:39.846
01:35:42.278 : en:01:35:42.278
01:38:50.549 : en:01:38:50.549
01:40:55.507 : en:01:40:55.507
01:42:59.798 : en:01:42:59.798


Релиз от:
КУБКИ

СТАЖ

МЕДАЛИ
Награды:66

За помощь проекту (2) Лучший по количеству кубков (15) За отличные раздачи и качество (5) За отличные комментарии (13) Почётный форумчанин (26) Верный Сид (1) За участие в конкурсах/играх (2)

Аватара пользователя
СССР
al1ksandr
Опытный Модератор-Корсар
  • Торрент
Для скачивания торрента необходимо зарегистрироваться или войти на трекер.

Вернуться в Мультфильмы (UHD 4K)



Uptime по данным Ping-Admin.Ru - сервиса мониторинга доступности сайтов
Рейтинг@Mail.ru