logo
Международный русскоязычный
торрент-трекер
Menu
Поделиться с друзьями: 
Голосуй за Корсар и получи 500 дублонов
Рейтинг торрент трекеров - UpTracker.ru

Рассекая волны / Breaking the Waves (1996, Драма, мелодрама, артхаус, BDRemux 1080p)

Сообщение al1ksandr » 31 июл 2020, 17:16

Название: Рассекая волны
Оригинальное название: Breaking the Waves
Год выпуска: 1996
Жанр: Драма, мелодрама, артхаус
Режиссер: Ларс фон Триер
В ролях: Эмили Уотсон, Стеллан Скарсгард, Кэтрин Картлидж, Жан-Марк Барр, Эдриан Роулинз, Джонатан Хэкетт, Сандра Воу, Удо Кир, Миккель Гауп, Рёеф Рагас

О фильме: Бог даёт каждому что-то, чтобы он стал лучше. Молодая девушка Бесс из отдалённой общины на северо-западе Шотландии влюбилась в хорошего парня Яна, работающего на буровой установке в море. Несмотря на противостояние родственников, они женятся. Бесс просит Бога, чтобы Ян всегда был рядом с ней, и Ян возвращается к ней. Искалеченным после несчастного случая на буровой. Что может сделать молодая женщина, чтобы её любимый остался жив? На какую жертву может пойти?



Выпущено: Дания, Швеция, Франция, Нидерланды, Норвегия, Исландия, Испания, Argus Film Produktie, Arte, Canal+
Продолжительность: 02:39:21
Перевод: Профессиональный многоголосый, профессиональный двухголосый

Качество: BDRemux 1080p
Видео: MPEG-4 AVC, 24.4 Мбит/с, 1920х1080, 23.976 кадр/с
Аудио 1: Russian; AC3; 48.0 KHz; 6ch; 448 Kbps || MVO DVD/BD
Аудио 2: Russian; AC3; 48.0 KHz; 2ch; 192 Kbps || DVO ВГТРК (1997 год)
Аудио 3: English; DTS-HD MA; 48.0 KHz; 6ch; 2416 Kbps || Original
Субтитры: Русские, английские (SDH)[

* На похоронах одного из жителей городка сотрудники церкви говорят о нём: «Энтони Дод Мэнтл был настоящим грешником». Энтони Дод Мэнтл - имя оператора многих фильмов Триера.
* Триер объяснил Эмили Уотсон, что она должна разговаривать с Богом, как девочки разговаривают с куклами.

Оскар, 1997 год
Номинации (1):
Лучшая женская роль (Эмили Уотсон)
Золотой глобус, 1997 год
Номинации (2):
Лучший фильм (драма)
Лучшая женская роль (драма) (Эмили Уотсон)
Британская академия, 1997 год
Номинации (1):
Лучшая женская роль (Эмили Уотсон)
Сезар, 1997 год
Победитель (1):
Лучший фильм на иностранном языке
Гойя, 1997 год
Номинации (1):
Лучший европейский фильм — «Дания, Франция, Нидерланды, Норвегия, Швеция»
Каннский кинофестиваль, 1996 год
Победитель (1):
Большой приз жюри
Номинации (1):
Золотая пальмовая ветвь
Европейская киноакадемия, 1996 год
Победитель (3):
Лучший фильм
Лучшая женская роль (Эмили Уотсон)
Приз международной ассоциации кинокритиков (ФИПРЕССИ)




General
Unique ID : 69709138903724597291380559127909689274 (0x34717DE6AF2F012516451A5450E2E7BA)
Complete name : E:\Мои рипы\Рассекая волны.1996.BDRemux.1080p.R.G. Goldenshara.mkv
Format : Matroska
Format version : Version 4
File size : 30.6 GiB
Duration : 2 h 39 min
Overall bit rate mode : Variable
Overall bit rate : 27.5 Mb/s
Movie name : Рассекая волны(Breaking the Waves).1996
Encoded date : UTC 2020-07-30 19:09:52
Writing application : mkvmerge v46.0.0 ('No Deeper Escape') 64-bit
Writing library : libebml v1.3.10 + libmatroska v1.5.2

Video
ID : 1
ID in the original source m : 4113 (0x1011)
Format : AVC
Format/Info : Advanced Video Codec
Format profile : High@L4.1
Format settings : CABAC / 4 Ref Frames
Format settings, CABAC : Yes
Format settings, Reference : 4 frames
Codec ID : V_MPEG4/ISO/AVC
Duration : 2 h 39 min
Bit rate mode : Variable
Bit rate : 24.4 Mb/s
Maximum bit rate : 37.0 Mb/s
Width : 1 920 pixels
Height : 1 080 pixels
Display aspect ratio : 16:9
Frame rate mode : Constant
Frame rate : 23.976 (24000/1001) FPS
Color space : YUV
Chroma subsampling : 4:2:0
Bit depth : 8 bits
Scan type : Progressive
Bits/(Pixel*Frame) : 0.491
Stream size : 27.1 GiB (89%)
Language : English
Default : Yes
Forced : No
Original source medium : Blu-ray

Audio #1
ID : 2
ID in the original source m : 4352 (0x1100)
Format : AC-3
Format/Info : Audio Coding 3
Commercial name : Dolby Digital
Codec ID : A_AC3
Duration : 2 h 39 min
Bit rate mode : Constant
Bit rate : 448 kb/s
Channel(s) : 6 channels
Channel layout : L R C LFE Ls Rs
Sampling rate : 48.0 kHz
Frame rate : 31.250 FPS (1536 SPF)
Compression mode : Lossy
Stream size : 511 MiB (2%)
Title : MVO DVD/BD
Language : Russian
Service kind : Complete Main
Default : Yes
Forced : No
Original source medium : Blu-ray

Audio #2
ID : 3
Format : AC-3
Format/Info : Audio Coding 3
Commercial name : Dolby Digital
Codec ID : A_AC3
Duration : 2 h 39 min
Bit rate mode : Constant
Bit rate : 192 kb/s
Channel(s) : 2 channels
Channel layout : L R
Sampling rate : 48.0 kHz
Frame rate : 31.250 FPS (1536 SPF)
Compression mode : Lossy
Stream size : 219 MiB (1%)
Title : DVO ВГТРК 1997год
Language : Russian
Service kind : Complete Main
Default : No
Forced : No

Audio #3
ID : 4
ID in the original source m : 4353 (0x1101)
Format : DTS XLL
Format/Info : Digital Theater Systems
Commercial name : DTS-HD Master Audio
Codec ID : A_DTS
Duration : 2 h 39 min
Bit rate mode : Variable
Bit rate : 2 416 kb/s
Channel(s) : 6 channels
Channel layout : C L R Ls Rs LFE
Sampling rate : 48.0 kHz
Frame rate : 93.750 FPS (512 SPF)
Bit depth : 24 bits
Compression mode : Lossless
Stream size : 2.69 GiB (9%)
Language : English
Default : No
Forced : No
Original source medium : Blu-ray

Text #1
ID : 5
Format : UTF-8
Codec ID : S_TEXT/UTF8
Codec ID/Info : UTF-8 Plain Text
Duration : 2 h 35 min
Bit rate : 43 b/s
Count of elements : 942
Stream size : 50.1 KiB (0%)
Language : Russian
Default : No
Forced : No

Text #2
ID : 6
ID in the original source m : 4609 (0x1201)
Format : PGS
Muxing mode : zlib
Codec ID : S_HDMV/PGS
Codec ID/Info : Picture based subtitle format used on BDs/HD-DVDs
Duration : 2 h 33 min
Bit rate : 34.2 kb/s
Count of elements : 3396
Stream size : 37.6 MiB (0%)
Language : English
Default : No
Forced : No
Original source medium : Blu-ray

Menu
00:00:00.000 : en:Глава 01
00:02:10.338 : en:Глава 02
00:17:27.629 : en:Глава 03
00:27:35.862 : en:Глава 04
00:37:29.121 : en:Глава 05
00:45:39.069 : en:Глава 06
00:50:22.769 : en:Глава 07
01:00:30.335 : en:Глава 08
01:11:10.474 : en:Глава 09
01:23:13.989 : en:Глава 10
01:32:24.330 : en:Глава 11
01:36:20.983 : en:Глава 12
01:38:51.842 : en:Глава 13
01:45:33.452 : en:Глава 14
01:50:44.971 : en:Глава 15
01:58:08.456 : en:Глава 16
02:02:05.318 : en:Глава 17
02:05:57.466 : en:Глава 18
02:14:44.034 : en:Глава 19
02:23:01.864 : en:Глава 20


Релиз-группа:
КУБКИ

СТАЖ

МЕДАЛИ
Награды:56

За активную помощь проекту (4) Лучший по количеству кубков (16) За отличные раздачи и качество (13) За подробное оформление раздач (1) За отличные комментарии (15) Почётный форумчанин (3) Верный Сид (1) За участие в конкурсах/играх (2)

Аватара пользователя
СССР
al1ksandr
Главный Модератор-Корсар
  • Торрент
Для скачивания торрента необходимо зарегистрироваться или войти на трекер.

Вернуться в Зарубежное кино (1991-2000 / HD Video)



Рейтинг@Mail.ru