logo
Международный русскоязычный
торрент-трекер
Menu

Doublon
Поделиться с друзьями: 
Голосуй за Корсар и получи 150 дублонов
Рейтинг торрент трекеров - UpTracker.ru

Пуля / По прозвищу "Пуля" / Bullet (1996, боевик, драма, криминал, WEBRip-AVC) - KORSAR

Сообщение filbi1976 » 11 дек 2016, 16:05

Пуля / По прозвищу "Пуля" / Bullet

Год выхода: 1996
Жанр: Боевик, драма, криминал
Режиссер: Джульен Темпл
В ролях: Микки Рурк — Бутч «Пуля» Стейн, Эдриен Броуди — Руби Стейн, Тупак Шакур — Тэнк, Джон Инос III — Лестер, Тед Ливайн — Льюис Стейн, Джерри Грэйсон — Сол Стейн, Донни Уолберг — Big Balls, Майкл Кеннет Уильямс — High Top, Питер Динклэйдж — Building Manager.

О фильме: Бутч Стайн по кличке Пуля выходит из тюрьмы, где восемь лет отбывал срок за ограбление магазина. Он возвращается в родительский дом. Старший брат потерял рассудок во Вьетнаме, младший расписывающий стены домов рисунками. Отец предлагает работу, казалось бы, можно начать новую жизнь, но первое, что делает Бутч, это колется.



Страна: США
Студия: Clipsal Films, Village Roadshow Pictures, New Line Cinema
Продолжительность: 01:36:06
Перевод: Профессиональный многоголосый, авторский одноголосый

Кодек: x264
Качество: WEBRip-AVC
Видео: 1152x642, 29.970 fps, 7512 kbps
Аудио 1: AC3, 192 Kbps, 48.0 KHz, 2 ch (Rus) Профессиональный многоголосый, ТВЦ
Аудио 2: AC3, 448 Kbps, 48.0 KHz, 6 ch (Rus) Профессиональный многоголосый
Аудио 3: AC3, 224 Kbps, 48.0 KHz, 2 ch (Rus) Авторский одноголосый, В.Горчаков
Аудио 4: AC3, 224 Kbps, 48.0 KHz, 2 ch (Rus) Авторский одноголосый, Д.Есарев
Аудио 5: AC3, 448 Kbps, 48.0 KHz, 6 ch (Rus) Авторский одноголосый, Д.Штамп
Аудио 6: AC3, 448 Kbps, 48.0 KHz, 6 ch (Ukr) Профессиональный многоголосый, Студия "Старий майстер"
Аудио 7: AC3, 448 Kbps, 48.0 KHz, 6 ch (Eng) Оригинал
Субтитры: Русские, Английские


Общее
Уникальный идентификатор : 209297340022412428521859619079629429511 (0x9D753391C4526D7A80889EE18579DB07)
Полное имя : D:\Пуля_1996-WEBRip-AVC_KORSAR.mkv
Формат : Matroska
Версия формата : Version 2
Размер файла : 6,81 Гбайт
Продолжительность : 1 ч. 36 м.
Общий поток : 10,1 Мбит/сек
Название фильма : Пуля_1996-WEBRip-AVC_KORSAR
Дата кодирования : UTC 2018-02-13 12:32:18
Программа кодирования : mkvmerge v5.8.0 ('No Sleep / Pillow') built on Sep 2 2012 15:37:04
Библиотека кодирования : libebml v1.2.3 + libmatroska v1.3.0

Видео
Идентификатор : 1
Формат : AVC
Формат/Информация : Advanced Video Codec
Профиль формата : High@L4.1
Параметр CABAC формата : Да
Параметр RefFrames формата : 11 кадров
Идентификатор кодека : V_MPEG4/ISO/AVC
Продолжительность : 1 ч. 36 м.
Битрейт : 7512 Кбит/сек
Ширина : 1152 пикселя
Высота : 642 пикселя
Соотношение сторон : 16:9
Режим частоты кадров : Постоянный
Частота кадров : 29,970 (30000/1001) кадров/сек
Цветовое пространство : YUV
Субдискретизация насыщенности : 4:2:0
Битовая глубина : 8 бит
Тип развёртки : Прогрессивная
Бит/(Пиксели*Кадры) : 0.339
Размер потока : 5,04 Гбайт (74%)
Библиотека кодирования : x264 core 148 r2744kMod b97ae06
Настройки программы : cabac=1 / ref=11 / deblock=1:-1:1 / analyse=0x3:0x113 / me=umh / subme=10 / psy=1 / fade_compensate=0.00 / psy_rd=1.05:0.05 / mixed_ref=1 / me_range=32 / chroma_me=1 / trellis=2 / 8x8dct=1 / cqm=0 / deadzone=21,11 / fast_pskip=1 / chroma_qp_offset=-3 / threads=12 / lookahead_threads=2 / sliced_threads=0 / nr=0 / decimate=1 / interlaced=0 / bluray_compat=0 / constrained_intra=0 / bframes=9 / b_pyramid=2 / b_adapt=2 / b_bias=0 / direct=1 / weightb=1 / open_gop=0 / weightp=2 / keyint=250 / keyint_min=25 / scenecut=40 / intra_refresh=0 / rc_lookahead=40 / rc=crf / mbtree=0 / crf=17.9000 / qcomp=0.63 / qpmin=0 / qpmax=39 / qpstep=4 / vbv_maxrate=50000 / vbv_bufsize=62500 / crf_max=0.0 / nal_hrd=none / filler=0 / ip_ratio=1.40 / pb_ratio=1.30 / aq=2:0.90
Язык : English
Default : Да
Forced : Нет
Цветовой диапазон : Limited
Основные цвета : BT.709
Характеристики трансфера : BT.709
Коэффициенты матрицы : BT.709

Аудио #1
Идентификатор : 2
Формат : AC-3
Формат/Информация : Audio Coding 3
Параметр Endianness формата : Big
Идентификатор кодека : A_AC3
Продолжительность : 1 ч. 36 м.
Вид битрейта : Постоянный
Битрейт : 192 Кбит/сек
Каналы : 2 канала
Расположение каналов : Front: L R
Частота : 48,0 КГц
Частота кадров : 31,250 кадров/сек (1536 SPF)
Битовая глубина : 16 бит
Метод сжатия : С потерями
Размер потока : 132 Мбайт (2%)
Заголовок : MVO-ТВЦ
Язык : Russian
ServiceKind/String : Complete Main
Default : Нет
Forced : Нет

Аудио #2
Идентификатор : 3
Формат : AC-3
Формат/Информация : Audio Coding 3
Параметр Endianness формата : Big
Идентификатор кодека : A_AC3
Продолжительность : 1 ч. 36 м.
Вид битрейта : Постоянный
Битрейт : 448 Кбит/сек
Каналы : 6 каналов
Расположение каналов : Front: L C R, Side: L R, LFE
Частота : 48,0 КГц
Частота кадров : 31,250 кадров/сек (1536 SPF)
Битовая глубина : 16 бит
Метод сжатия : С потерями
Размер потока : 308 Мбайт (4%)
Заголовок : MVO
Язык : Russian
ServiceKind/String : Complete Main
Default : Нет
Forced : Нет

Аудио #3
Идентификатор : 4
Формат : AC-3
Формат/Информация : Audio Coding 3
Параметр Endianness формата : Big
Идентификатор кодека : A_AC3
Продолжительность : 1 ч. 36 м.
Вид битрейта : Постоянный
Битрейт : 224 Кбит/сек
Каналы : 2 канала
Расположение каналов : Front: L R
Частота : 48,0 КГц
Частота кадров : 31,250 кадров/сек (1536 SPF)
Битовая глубина : 16 бит
Метод сжатия : С потерями
Размер потока : 154 Мбайт (2%)
Заголовок : AVO-Горчаков
Язык : Russian
ServiceKind/String : Complete Main
Default : Нет
Forced : Нет

Аудио #4
Идентификатор : 5
Формат : AC-3
Формат/Информация : Audio Coding 3
Параметр Endianness формата : Big
Идентификатор кодека : A_AC3
Продолжительность : 1 ч. 36 м.
Вид битрейта : Постоянный
Битрейт : 224 Кбит/сек
Каналы : 2 канала
Расположение каналов : Front: L R
Частота : 48,0 КГц
Частота кадров : 31,250 кадров/сек (1536 SPF)
Битовая глубина : 16 бит
Метод сжатия : С потерями
Размер потока : 154 Мбайт (2%)
Заголовок : AVO-Есарев
Язык : Russian
ServiceKind/String : Complete Main
Default : Нет
Forced : Нет

Аудио #5
Идентификатор : 6
Формат : AC-3
Формат/Информация : Audio Coding 3
Параметр Endianness формата : Big
Идентификатор кодека : A_AC3
Продолжительность : 1 ч. 36 м.
Вид битрейта : Постоянный
Битрейт : 448 Кбит/сек
Каналы : 6 каналов
Расположение каналов : Front: L C R, Side: L R, LFE
Частота : 48,0 КГц
Частота кадров : 31,250 кадров/сек (1536 SPF)
Битовая глубина : 16 бит
Метод сжатия : С потерями
Размер потока : 308 Мбайт (4%)
Заголовок : VO-Штамп Дмитрий (sf@irat)
Язык : Russian
ServiceKind/String : Complete Main
Default : Нет
Forced : Нет

Аудио #6
Идентификатор : 7
Формат : AC-3
Формат/Информация : Audio Coding 3
Параметр Endianness формата : Big
Идентификатор кодека : A_AC3
Продолжительность : 1 ч. 36 м.
Вид битрейта : Постоянный
Битрейт : 448 Кбит/сек
Каналы : 6 каналов
Расположение каналов : Front: L C R, Side: L R, LFE
Частота : 48,0 КГц
Частота кадров : 31,250 кадров/сек (1536 SPF)
Битовая глубина : 16 бит
Метод сжатия : С потерями
Размер потока : 308 Мбайт (4%)
Заголовок : MVO
Язык : Ukrainian
ServiceKind/String : Complete Main
Default : Нет
Forced : Нет

Аудио #7
Идентификатор : 8
Формат : AC-3
Формат/Информация : Audio Coding 3
Параметр Endianness формата : Big
Идентификатор кодека : A_AC3
Продолжительность : 1 ч. 36 м.
Вид битрейта : Постоянный
Битрейт : 448 Кбит/сек
Каналы : 6 каналов
Расположение каналов : Front: L C R, Side: L R, LFE
Частота : 48,0 КГц
Частота кадров : 31,250 кадров/сек (1536 SPF)
Битовая глубина : 16 бит
Метод сжатия : С потерями
Размер потока : 308 Мбайт (4%)
Язык : English
ServiceKind/String : Complete Main
Default : Нет
Forced : Нет

Текст #1
Идентификатор : 9
Формат : UTF-8
Идентификатор кодека : S_TEXT/UTF8
Идентификатор кодека/Информация : UTF-8 Plain Text
Язык : Russian
Default : Нет
Forced : Нет

Текст #2
Идентификатор : 10
Формат : UTF-8
Идентификатор кодека : S_TEXT/UTF8
Идентификатор кодека/Информация : UTF-8 Plain Text
Язык : English
Default : Нет
Forced : Нет

Меню
00:00:00.000 : en:Chapter 1
00:04:54.000 : en:Chapter 2
00:10:13.000 : en:Chapter 3
00:13:09.000 : en:Chapter 4
00:18:10.000 : en:Chapter 5
00:21:03.000 : en:Chapter 6
00:25:56.000 : en:Chapter 7
00:30:29.000 : en:Chapter 8
00:34:26.000 : en:Chapter 9
00:42:08.000 : en:Chapter 10
00:45:27.000 : en:Chapter 11
00:50:52.000 : en:Chapter 12
00:54:17.000 : en:Chapter 13
00:57:59.000 : en:Chapter 14
01:00:17.000 : en:Chapter 15
01:02:51.000 : en:Chapter 16
01:05:56.000 : en:Chapter 17
01:11:51.000 : en:Chapter 18
01:14:52.000 : en:Chapter 19
01:17:38.000 : en:Chapter 20
01:22:42.000 : en:Chapter 21
01:27:49.000 : en:Chapter 22
01:31:37.000 : en:Chapter 23
01:35:50.000 : en:Chapter 24


Сравнение с DVDRip-AVC

На рутор не перезаливать
Аватара пользователя
filbi1976
Администратор-Корсар
 
 

Награды: 47
За помощь проекту (1) За отличные раздачи и качество (33) Верный Сид (10) За участие в конкурсах/играх (1)
Раздачи группы KORSAR разрешено перезаливать спустя сутки после публикации
  • Торрент
Для скачивания торрента необходимо зарегистрироваться или войти на трекер.

Сообщение filbi1976 » 13 фев 2018, 15:10

По заказам телезрителей! :hi:
Исходник ужасен, но получилось лучше чем ДВД.
http://screenshotcomparison.com/compari ... /picture:0
Аватара пользователя
filbi1976
Администратор-Корсар
 
 

Награды: 47
За помощь проекту (1) За отличные раздачи и качество (33) Верный Сид (10) За участие в конкурсах/играх (1)

Сообщение Korsar » 13 фев 2018, 15:32

Серега супер спасиба. :-drinks: :friends: :-good: :10 balov: :punk:

Боцман
Аватара пользователя
Korsar
Помощник Администратора-Корсар
 
 

Награды: 31
За помощь проекту (2) За отличные раздачи и качество (12) За подробное оформление раздач (1) За отличные комментарии (1) Верный Сид (11) За участие в конкурсах/играх (2)

Сообщение inet2663 » 13 фев 2018, 16:53

Спасибки заценим :hi: :yahoo: :-dance2:
Аватара пользователя
inet2663
Опытный Релизёр-Корсар
 
 

Награды: 34
За помощь проекту (5) Лучший по количеству кубков (4) За отличные раздачи и качество (10) За подробное оформление раздач (1) Верный Сид (11)

Сообщение Valet » 13 фев 2018, 18:35

Режиссура, актёрское мастерство, сценарий и операторская работа — выполнены на должном уровне. Совершенно не к чему придраться. Кино тяжёлое, для любителя мелодрам не подойдёт. Всё же советую его серьёзному зрителю, думающему, склонному к анализу. Хотя бы для того, чтобы окунуться в эту атмосферу.
Аватара пользователя
Valet
Опытный Релизёр-Корсар
 
 

Награды: 14
Лучший по количеству кубков (1) За отличные раздачи и качество (7) За отличные комментарии (3)

Сообщение Yorker » 13 фев 2018, 20:53

Классный фильм. Смотрел в 90-е. Почему на блюре не вышел - не понятно.
Аватара пользователя
Yorker
Уважаемый Корсар
 
 

Награды: 10
Лучший по количеству кубков (1) Верный Сид (9)

Сообщение Булкин Семён » 14 фев 2018, 21:39

Спасибо! :hi:
Аватара пользователя
Булкин Семён
Опытный Корсар
 
 



Вернуться в Зарубежное кино (1991-2000)



Uptime по данным Ping-Admin.Ru - сервиса мониторинга доступности сайтов
Рейтинг@Mail.ru