logo
Международный русскоязычный
торрент-трекер
Menu
Doublon
Поделиться с друзьями: 
Голосуй за Корсар и получи 400 дублонов
Рейтинг торрент трекеров - UpTracker.ru

Прямо в ад / Straight to Hell (1987, Боевик, комедия, вестерн, BDRip 1080p) - KORSAR

Сообщение MZMA » 04 дек 2018, 23:26

Название: Прямо в ад
Оригинальное название: Straight to Hell
Год выпуска: 1987
Выпущено: Великобритания, Commies From Mars Corporation, Initial Pictures
Жанр: Боевик, комедия, вестерн
Режиссер: Алекс Кокс
В ролях: Сай Ричардсон, Джо Страммер, Дик Рюд, Кортни Лав, Деннис Хоппер, Грэйс Джонс, Джим Джармуш, Элвис Костелло, Шейн МакГован

О фильме: Банда наемных убийц проваливает задание и скрывается от заказчика в маленьком городке посреди пустыни, предварительно ограбив банк и закопав добычу. Но залечь на дно в городе, которым правит клан помешанных на кофе ковбоев оказывается не так просто…



Продолжительность: 01:30:53
Перевод: Профессиональный двухголосый, авторский, любительский
Субтитры: Нет
Навигация по главам: Есть

Качество: BDRip 1080p
Видео: MPEG-4 AVC, 10,5 Мбит/сек, 1918x816, 23,976 кадра/сек
Аудио #1: AC3, 2 ch, 192 Кбит/сек | Русский, профессиональный (двухголосый закадровый)
Аудио #2: AC3, 2 ch, 192 Кбит/сек | Русский, авторский (одноголосый закадровый) Сергей Кузнецов
Аудио #3: AC3, 2 ch, 192 Кбит/сек | Русский, любительский (одноголосый закадровый) женский голос
Аудио #4: AC3, 6 ch, 640 Кбит/сек | Английский, оригинал

Сборка:


Общее
Уникальный идентификатор : 222757217506147444360401980659180409780 (0xA7957AC3F14F1016B5AF63F1622693B4)
Полное имя : Прямо.в.ад.1987.BDRip.1080p.mkv
Формат : Matroska
Версия формата : Version 2
Размер файла : 7,56 Гбайт
Продолжительность : 1 ч. 30 м.
Общий поток : 11,9 Мбит/сек
Дата кодирования : UTC 2018-12-04 19:27:36
Программа кодирования : mkvmerge v5.8.0 ('No Sleep / Pillow') built on Sep 2 2012 15:37:04
Библиотека кодирования : libebml v1.2.3 + libmatroska v1.3.0

Видео
Идентификатор : 1
Формат : AVC
Формат/Информация : Advanced Video Codec
Профиль формата : High@L4.1
Настройки формата : CABAC / 5 Ref Frames
Параметр CABAC формата : Да
Параметр RefFrames формата : 5 кадров
Идентификатор кодека : V_MPEG4/ISO/AVC
Продолжительность : 1 ч. 30 м.
Битрейт : 10,5 Мбит/сек
Ширина : 1918 пикселей
Высота : 816 пикселей
Соотношение сторон : 2,35:1
Режим частоты кадров : Постоянный
Частота кадров : 23,976 (24000/1001) кадра/сек
Цветовое пространство : YUV
Субдискретизация насыщенности : 4:2:0
Битовая глубина : 8 бит
Тип развёртки : Прогрессивная
Бит/(Пиксели*Кадры) : 0.279
Размер потока : 6,63 Гбайт (88%)
Библиотека кодирования : x264 core 155 r2901 7d0ff22
Настройки программы : cabac=1 / ref=5 / deblock=1:-3:-3 / analyse=0x3:0x133 / me=umh / subme=10 / psy=1 / psy_rd=1.00:0.00 / mixed_ref=1 / me_range=32 / chroma_me=1 / trellis=2 / 8x8dct=1 / cqm=0 / deadzone=21,11 / fast_pskip=0 / chroma_qp_offset=-2 / threads=25 / lookahead_threads=6 / sliced_threads=0 / nr=0 / decimate=0 / interlaced=0 / bluray_compat=0 / constrained_intra=0 / bframes=16 / b_pyramid=2 / b_adapt=2 / b_bias=0 / direct=3 / weightb=1 / open_gop=0 / weightp=2 / keyint=240 / keyint_min=24 / scenecut=40 / intra_refresh=0 / rc_lookahead=60 / rc=crf / mbtree=0 / crf=20.2 / qcomp=0.60 / qpmin=0 / qpmax=69 / qpstep=4 / vbv_maxrate=62500 / vbv_bufsize=78125 / crf_max=0.0 / nal_hrd=none / filler=0 / ip_ratio=1.40 / pb_ratio=1.30 / aq=2:1.00
Язык : English
По умолчанию : Да
Принудительно : Нет
Цветовой диапазон : Limited
Основные цвета : BT.709
Характеристики трансфера : BT.709
Коэффициенты матрицы : BT.709

Аудио #1
Идентификатор : 2
Формат : AC-3
Формат/Информация : Audio Coding 3
Идентификатор кодека : A_AC3
Продолжительность : 1 ч. 30 м.
Вид битрейта : Постоянный
Битрейт : 192 Кбит/сек
Каналы : 2 канала
Расположение каналов : Front: L R
Частота : 48,0 КГц
Частота кадров : 31,250 кадров/сек (1536 SPF)
Битовая глубина : 16 бит
Метод сжатия : С потерями
Размер потока : 125 Мбайт (2%)
Заголовок : DVO
Язык : Russian
По умолчанию : Да
Принудительно : Нет

Аудио #2
Идентификатор : 3
Формат : AC-3
Формат/Информация : Audio Coding 3
Идентификатор кодека : A_AC3
Продолжительность : 1 ч. 30 м.
Вид битрейта : Постоянный
Битрейт : 192 Кбит/сек
Каналы : 2 канала
Расположение каналов : Front: L R
Частота : 48,0 КГц
Частота кадров : 31,250 кадров/сек (1536 SPF)
Битовая глубина : 16 бит
Метод сжатия : С потерями
Размер потока : 125 Мбайт (2%)
Заголовок : AVO | С. Кузнецов
Язык : Russian
По умолчанию : Нет
Принудительно : Нет

Аудио #3
Идентификатор : 4
Формат : AC-3
Формат/Информация : Audio Coding 3
Идентификатор кодека : A_AC3
Продолжительность : 1 ч. 30 м.
Вид битрейта : Постоянный
Битрейт : 192 Кбит/сек
Каналы : 2 канала
Расположение каналов : Front: L R
Частота : 48,0 КГц
Частота кадров : 31,250 кадров/сек (1536 SPF)
Битовая глубина : 16 бит
Метод сжатия : С потерями
Размер потока : 125 Мбайт (2%)
Заголовок : VO | Дама
Язык : Russian
По умолчанию : Нет
Принудительно : Нет

Аудио #4
Идентификатор : 5
Формат : AC-3
Формат/Информация : Audio Coding 3
Идентификатор кодека : A_AC3
Продолжительность : 1 ч. 30 м.
Вид битрейта : Постоянный
Битрейт : 640 Кбит/сек
Каналы : 6 каналов
Расположение каналов : Front: L C R, Side: L R, LFE
Частота : 48,0 КГц
Частота кадров : 31,250 кадров/сек (1536 SPF)
Битовая глубина : 16 бит
Метод сжатия : С потерями
Размер потока : 416 Мбайт (5%)
Заголовок : Original
Язык : English
По умолчанию : Нет
Принудительно : Нет

Меню
00:00:00.000 : en:Chapter 01
00:05:29.829 : en:Chapter 02
00:09:13.052 : en:Chapter 03
00:12:30.750 : en:Chapter 04
00:23:32.411 : en:Chapter 05
00:31:35.393 : en:Chapter 06
00:37:23.241 : en:Chapter 07
00:48:54.932 : en:Chapter 08
00:56:53.410 : en:Chapter 09
01:06:35.491 : en:Chapter 10
01:27:46.261 : en:Chapter 11
01:30:40.435 : en:Chapter 12

КУБКИ

СТАЖ

МЕДАЛИ
Награды:82

За помощь проекту (3) Лучший по количеству кубков (6) За отличные раздачи и качество (46) За подробное оформление раздач (11) Верный Сид (14)

Аватара пользователя
СССР
MZMA
Главный Модератор-Корсар
Раздачи группы KORSAR разрешено перезаливать спустя сутки после публикации
  • Торрент
Для скачивания торрента необходимо зарегистрироваться или войти на трекер.

Вернуться в Зарубежное кино (1981-1990 / HD Video)



Uptime по данным Ping-Admin.Ru - сервиса мониторинга доступности сайтов
Рейтинг@Mail.ru Голосуйте за наш сайт в каталоге Rubo.Ru