logo
Международный русскоязычный
торрент-трекер
Menu

Магазин-KorsaRDoublon
Поделиться с друзьями: 
Голосуй за Корсар и получай дублоны
Рейтинг торрент трекеров - UpTracker.ru

Проснись и пой! (1973, Телеспектакль, Комедия, DVDRip-AVC) - KORSAR

Сообщение filbi1976 » 09 дек 2016, 20:10

Название: Проснись и пой!
Год выхода: 1973
Жанр: Телеспектакль, Комедия
Режиссер: Марк Захаров, Александр Ширвиндт
В ролях: Т. Пельтцер, Г. Менглет, Н. Архипова, Н. Корниенко, Б. Кумаритов, Т. Егорова

О фильме: " Этот телеспектакль Московского театра Сатиры был поставлен в 1973 году по одноименной пьесе М. Дярфаша «Проснись и пой!» талантливым дуэтом режиссеров, которые раньше вместе никогда не работали ¬ Марком Захаровым и Александром Ширвиндтом, причем у Александра Ширвиндта это был безусловно успешный дебют. Вас покорит в этом спектакле не только мастерская игра настоящих корифеев сценического искусства Татьяны Пельтцер, Бориса Кумаритова, Нины Корниенко, Георгия Менглета и других, но и море искрометного юмора, забавных ситуаций, художественная постановка и музыкальное сопровождение телеспектакля. А роль прелестной, поразительно обаятельной Эржи, сыгранной в дуэте с Георгием Павловичем Менглетом, оказалась удивительно значимой в актерской судьбе Нины Архиповой. Прелестная песенка "Что с тобою, милый Пишта, что с тобою?" стала на многие годы своеобразной визитной карточкой этой замечательной актерской пары. Дюла, сын четы Орбак ¬ молодой человек, как все в его возрасте ищущий любви и одновременно мечтающий о полной свободе. Он любит родителей, но ему ужасно надоели нотации и поучения. И по большому счету, как и многие молодые люди, он и сам не очень хорошо знает ¬ чего хочет... Этот спектакль долгое время был бесспорным хитом театральной Москвы."

Выпущено: СССР
Продолжительность: 01:37:20
Перевод: не требуется

Файл
Кодек: х264
Качество: DVDRip-AVC
Видео: MPEG-4 AVC, 704x574@750x574, 25 fps, 2500 Кбит/с
Звук: AC3, 2 ch, 128 Кбит/с


x264 [info]: frame I:712 Avg QP:17.17 size: 69033
x264 [info]: frame P:38842 Avg QP:19.21 size: 30860
x264 [info]: frame B:106450 Avg QP:21.55 size: 5423
======================================================================================
Общее
Уникальный идентификатор : 213144131883878971420216024265971867614 (0xA05A110D209E52FD8F92CB10130E1FDE)
Полное имя : D:\Проснись и пой_1973-DVDRip-AVC_(Спектакль).mkv
Формат : Matroska
Версия формата : Version 2
Размер файла : 1,79 Гбайт
Продолжительность : 1 ч. 37 м.
Общий поток : 2630 Кбит/сек
Дата кодирования : UTC 2016-12-09 16:33:46
Программа кодирования : mkvmerge v5.8.0 ('No Sleep / Pillow') built on Sep 2 2012 15:37:04
Библиотека кодирования : libebml v1.2.3 + libmatroska v1.3.0

Видео
Идентификатор : 1
Формат : AVC
Формат/Информация : Advanced Video Codec
Профиль формата : High@L4.1
Параметр CABAC формата : Да
Параметр ReFrames формата : 14 кадров
Идентификатор кодека : V_MPEG4/ISO/AVC
Продолжительность : 1 ч. 37 м.
Битрейт : 2500 Кбит/сек
Ширина : 704 пикселя
Высота : 574 пикселя
Соотношение сторон : 4:3
Соотношение сторон в оригинале : 4:3
Режим частоты кадров : Постоянный
Частота кадров : 25,000 кадров/сек
Цветовое пространство : YUV
Субдискретизация насыщенности : 4:2:0
Битовая глубина : 8 бит
Тип развёртки : Прогрессивная
Бит/(Пиксели*Кадры) : 0.247
Размер потока : 1,67 Гбайт (93%)
Библиотека кодирования : x264 core 148 r2721kMod 72d53ab
Настройки программы : cabac=1 / ref=14 / deblock=1:-2:-2 / analyse=0x3:0x133 / me=umh / subme=10 / psy=1 / fade_compensate=0.00 / psy_rd=1.05:0.10 / mixed_ref=1 / me_range=32 / chroma_me=1 / trellis=2 / 8x8dct=1 / cqm=0 / deadzone=21,11 / fast_pskip=0 / chroma_qp_offset=-3 / threads=12 / lookahead_threads=2 / sliced_threads=0 / nr=0 / decimate=0 / interlaced=0 / bluray_compat=0 / constrained_intra=0 / fgo=0 / bframes=8 / b_pyramid=2 / b_adapt=2 / b_bias=0 / direct=3 / weightb=1 / open_gop=0 / weightp=2 / keyint=250 / keyint_min=25 / scenecut=40 / intra_refresh=0 / rc=2pass / mbtree=0 / bitrate=2500 / ratetol=1.0 / qcomp=0.63 / qpmin=0 / qpmax=39 / qpstep=4 / cplxblur=20.0 / qblur=0.5 / ip_ratio=1.20 / pb_ratio=1.30 / aq=1:1.00
Язык : English
Default : Да
Forced : Нет
Цветовой диапазон : Limited
Основные цвета : BT.601 PAL
Характеристики трансфера : BT.470 System B, BT.470 System G
Коэффициенты матрицы : BT.601

Аудио
Идентификатор : 2
Формат : AC-3
Формат/Информация : Audio Coding 3
Расширение режима : CM (complete main)
Параметр Endianness формата : Big
Идентификатор кодека : A_AC3
Продолжительность : 1 ч. 37 м.
Вид битрейта : Постоянный
Битрейт : 128 Кбит/сек
Каналы : 2 канала
Расположение каналов : Front: L R
Частота : 48,0 КГц
Частота кадров : 31,250 кадров/сек (1536 spf)
Битовая глубина : 16 бит
Метод сжатия : С потерями
Размер потока : 89,1 Мбайт (5%)
Язык : Russian
Default : Да
Forced : Нет

Аватара пользователя
filbi1976
Главный-Корсар
 
 

Награды: 21
За отличные раздачи и качество (15) За участие в конкурсах (1) Верный Сид (4)
  • Торрент
Для скачивания торрента необходимо зарегистрироваться или войти на трекер.

Сообщение verybigpapa » 09 дек 2016, 20:31

Великолепный спектакль! Уважаемый filbi1976, огромное спасибо! :hi:
Улыбайтесь, господа! Улыбайтесь!
Аватара пользователя
verybigpapa
Заслуженный Корсар-Вип
 
 

Награды: 15
За помощь проекту (5) Лучший по количеству кубков (3) За отличные комментарии (3) Верный Сид (4)

Сообщение kwazar312 » 09 дек 2016, 21:37

Не смотрел,но стоит посмотреть хотя-бы из-за того,что играет Т.Пельтцер.Большое спасибо.
Аватара пользователя
kwazar312
Заслуженный Корсар-Вип
 
 

Награды: 17
За помощь проекту (2) Лучший по количеству кубков (5) За отличные комментарии (4) За участие в конкурсах (2) Верный Сид (4)

Сообщение Digor » 09 дек 2016, 21:43

Огромное спасибо, Сергей! :hi: :hi: :hi:
Отличный спектакль, чудесная музыка Гладкова, блестящая игра дуэта Менглет - Архипова, Пельтцер. Часто смотрю, плохое настроение быстро улетучивается )
Аватара пользователя
Digor
Главный Модератор-Корсар
 
 

Награды: 6
За помощь проекту (2) Лучший по количеству кубков (1) Верный Сид (2)

Сообщение filbi1976 » 09 дек 2016, 23:19

Всем пожалуйста! :hi:
Аватара пользователя
filbi1976
Главный-Корсар
 
 

Награды: 21
За отличные раздачи и качество (15) За участие в конкурсах (1) Верный Сид (4)

Сообщение bortnikov » 10 дек 2016, 11:40

Сергей, Спасибо за фильм в хорошем качестве.
Аватара пользователя
bortnikov
Уважаемый Корсар
 
 

Награды: 3
Лучший по количеству кубков (1) Верный Сид (2)

Сообщение Digor » 10 дек 2016, 18:15

pavel gnus писал(а):Давно хотелось видеть телеверсии наших лучших спектаклей в МКВ, и вот свершилось! Начало положено (хотя может ещё что-то есть, просто я пока не видел). Огромное Вам сасибо, filbi1976!


Это уже 7-й фильм-спектакль. filmi-spektakli-teatralnie-postanovki-f130.html
А чтобы их число на сайте увеличивалось нужно просто посещать Стол заказов и оставлять заявку на спектакль )
Аватара пользователя
Digor
Главный Модератор-Корсар
 
 

Награды: 6
За помощь проекту (2) Лучший по количеству кубков (1) Верный Сид (2)

Сообщение bagrad » 10 дек 2016, 22:43

Огромное спасибо Сергей! Только вот недавно пересмотрел его и сказать могу одно, что это очень чудный спектакль!
Dum spíro, spéro!
Аватара пользователя
bagrad
Заслуженный Корсар-Вип
 
 

Награды: 13
За помощь проекту (1) Лучший по количеству кубков (7) За отличные комментарии (1) Верный Сид (4)

Сообщение Bars_St » 11 дек 2016, 02:55

Спасибо!!! Хороший, добрый телеспектакль...
:good:
Аватара пользователя
Bars_St
Заслуженный Корсар-Вип
 
 

Награды: 10
За помощь проекту (3) Лучший по количеству кубков (1) За отличные комментарии (4) Верный Сид (2)


Вернуться в Фильмы-спектакли, театральные постановки



Uptime по данным Ping-Admin.Ru - сервиса мониторинга доступности сайтов